Скачать через торрент [VIDEO] Оз: Великий и Ужасный Oz the Great and Powerful бесплатно русская версия torrent активатор

Если у вас наблюдаются проблемы со скриншотами, переходом по ссылками, скачиванием торрентов - проблемы в блокировщике рекламы AdBlock. #хорошегоДня!


Статистика раздачи
Размер:  587 MB   |    Зарегистрирован:  5 месяцев 10 дней   |    .torrent скачан:  23 раза   |   
Раздают:  1  
   
Загрузка...
 
Автор Сообщение

Galfimbul

avatar Galfimbul


Оз: Великий и Ужасный / Oz the Great and Powerful«Find yourself in Oz.»
Год выпуска: 2013
Страна: США / Roth Films, Walt Disney Pictures
Жанр: фэнтези, приключения, комедия, семейный
Продолжительность: 02:10:29
Перевод: Русский Профессиональный (полное дублирование) Blu-ray CEE [Лицензия]
Субтитры: нетРежиссер: Сэм Рэйми / Sam RaimiВ ролях: Джеймс Франко, Мила Кунис, Рейчел Вайс, Мишель Уильямс, Зак Брафф, Билл Коббс, Джои Кинг, Тони Кокс, Стивен Р. Харт, Эбигейл Спенсер и другие .Описание: Когда ураган забрасывает циркового фокусника Оскара Диггса из пыльного Канзаса в волшебную страну Оз, склонный к мошенничеству циркач полагает, что он поймал удачу за хвост — ведь с помощью своих трюков он с легкостью может добыть в новых землях и славу и богатство.
Однако его ждёт встреча с тремя чародейками, Теодорой, Эванорой и Глиндой, которые сомневаются в том, тот ли это великий волшебник, появления которого ждали легковерные жители страны Оз. Волей-неволей, пришелец оказывается втянутым в противостояние эпического масштаба, и ему приходится использовать весь свой «магический» арсенал, с добавлением толики настоящего волшебства.
В ситуации выбора между Добром и Злом, Оскару Диггсу предстоит не только стать Великим и Ужасным Волшебником из Страны Оз, но и немного измениться к лучшему.
Релиз группы Качество: HDRip / рип с BDRip 720p
Формат: MP4
Видео кодек: XviD
Аудио кодек: AAC
Видео: 480х200 AR:2.40 497 kbps 23.976 fps
Аудио: [Russian] 2ch 48 kHz 128 kbps - Профессиональный (полное дублирование) Blu-ray CEE [Лицензия]
GeneralComplete name : D:\Torrents\Oz the Great and Powerful.2013.HDRip.XviD.480x.rip by Frost O.S.mp4Format : MPEG-4Format profile : Base MediaCodec ID : isom (isom)File size : 587 MiBDuration : 2 h 10 minOverall bit rate mode : VariableOverall bit rate : 629 kb/sEncoded date : UTC 2017-07-07 10:26:03Tagged date : UTC 2017-07-07 10:26:03Writing application : My MP4Box GUI 0.6.0.6

VideoID : 1Format : MPEG-4 VisualFormat profile : Advanced Simple@L5Format settings, BVOP : YesFormat settings, QPel : YesFormat settings, GMC : No warppointsFormat settings, Matrix : CustomCodec ID : 20Duration : 2 h 10 minBit rate mode : VariableBit rate : 497 kb/sMaximum bit rate : 7 281 kb/sWidth : 480 pixelsHeight : 200 pixelsDisplay aspect ratio : 2.40:1Frame rate mode : ConstantFrame rate : 23.976 (24000/1001) FPSColor space : YUVChroma subsampling : 4:2:0Bit depth : 8 bitsScan type : ProgressiveCompression mode : LossyBits/(Pixel*Frame) : 0.216Stream size : 464 MiB (79%)Title : Oz the Great and Powerful.2013.HDRip.XviD.480x.rip by Frost O.S.mp4Writing library : XviD 1.2.1 (UTC 2008-12-04)Encoded date : UTC 2017-07-07 10:26:03Tagged date : UTC 2017-07-07 10:26:19

AudioID : 2Format : AACFormat/Info : Advanced Audio CodecFormat profile : LCCodec ID : 40Duration : 2 h 10 minBit rate mode : VariableBit rate : 128 kb/sMaximum bit rate : 133 kb/sChannel(s) : 2 channelsChannel positions : Front: L RSampling rate : 48.0 kHzFrame rate : 46.875 FPS (1024 spf)Compression mode : LossyStream size : 119 MiB (20%)Title : Russian / Dub, Blu-ray CEEEncoded date : UTC 2017-07-07 10:26:17Tagged date : UTC 2017-07-07 10:26:19


Трекер:  [ 07-Июл-2017 13:42 ]

  

Скачать .torrent

Размер .torrent файла 12 KB


Размер: 587 MB
Хэш (hash) релиза: 16a0e805c62e19253d2ab9723b9825b74800c569

Торренты, похожие на [VIDEO] Оз: Великий и Ужасный Oz the Great and Powerful скачать торрент

Форум Название Автор Размер S L Добавлен
Видео (Фильмы/Клипы) ·· [VIDEO] Оз: Великий и Ужасный / Oz the Great and Powerful (Сэм Рэйми / Sam Raimi) [2013, фэнтези, приключения, комедия, семейный, BDRip] [MP4, 960x] Dub (Rus, Ukr), Original, Sub (rus, ukr, eng) Galfimbul 20867107391.94 GB 0 0 1496415864

18:04

2-Июн-17

Еще никто не оставлял запись к записи скачать торрент [VIDEO] Оз: Великий и Ужасный Oz the Great and Powerful . Будь первым!

!Обратная связь