Скачать через торрент [VIDEO] Максимка бесплатно русская версия torrent активатор

Если у вас наблюдаются проблемы со скриншотами, переходом по ссылками, скачиванием торрентов - проблемы в блокировщике рекламы AdBlock. #хорошегоДня!


Статистика раздачи
Размер:  638 MB   |    Зарегистрирован:  5 месяцев 6 дней   |    .torrent скачан:  28 раз   |   
Раздают:  1  
   
Загрузка...
 
Автор Сообщение

Galfimbul

avatar Galfimbul


Максимка
Год выпуска: 1952
Страна: СССР
Жанр: приключения
Продолжительность: 01:13:37
Перевод: не требуется
Субтитры: нетРежиссер: Владимир БраунВ ролях: Борис Андреев, Николай Крючков, Толя Бавыкин, Сергей Курилов, Степан Каюков, Владимир Балашов, Вячеслав Тихонов, Марк Бернес, Петр Соболевский, Константин Сорокин, Николай Пишванов, Андрей Сова, Михаил Пуговкин, Михаил Астангов, Эммануил Геллер, Александр Кашперов, Роберт Росс, Лев Олевский, Иван Матвеев .Описание: Спасенный русскими матросами негритенок, названный Максимкой, поборов в себе страх перед белыми людьми, оказался на редкость смышленым и добрым мальчуганом. Однажды именно Максимке удается спасти матроса Лучкина от вербовщиков рабочей силы. За находчивость и мужество юный герой зачисляется в состав команды корвета и становится юнгой русского флота… Релиз группы Качество: DVDRip / рип с DVD5 "Видеобаза"
Формат: MP4
Видео кодек: H.264
Аудио кодек: AAC
Видео: 472x360 AR:1.31 1080 kbps 25 fps
Аудио: 2ch 48 kHz 128 kbps
*Присутствует плавающий кроп *
avs [info]: 472x360p 1:1 @ 25/1 fps (cfr)
x264 [info]: using SAR=1/1
x264 [info]: using cpu capabilities: MMX2 SSE2Fast SSSE3 SSE4.2 AVX FMA3 AVX2 LZCNT BMI2
x264 [info]: profile High, level 4.1
x264 [info]: frame I:643 Avg QP:16.32 size: 33196
x264 [info]: frame P:30672 Avg QP:19.35 size: 11374
x264 [info]: frame B:79133 Avg QP:21.31 size: 2858
x264 [info]: consecutive B-frames: 4.7% 5.9% 15.1% 32.5% 20.1% 18.4% 2.4% 0.8% 0.2%
x264 [info]: mb I I16..4: 1.2% 73.8% 25.0%
x264 [info]: mb P I16..4: 0.1% 8.0% 1.2% P16..4: 30.1% 40.2% 19.2% 0.0% 0.0% skip: 1.3%
x264 [info]: mb B I16..4: 0.0% 0.6% 0.1% B16..8: 33.3% 25.7% 4.8% direct: 5.4% skip:29.9% L0:29.9% L1:39.0% BI:31.2%
x264 [info]: 8x8 transform intra:83.7% inter:55.2%
x264 [info]: direct mvs spatial:98.1% temporal:1.9%
x264 [info]: coded y,uvDC,uvAC intra: 97.4% 86.3% 63.8% inter: 31.3% 24.1% 9.7%
x264 [info]: i16 v,h,dc,p: 17% 43% 3% 38%
x264 [info]: i8 v,h,dc,ddl,ddr,vr,hd,vl,hu: 13% 11% 8% 8% 12% 12% 11% 11% 12%
x264 [info]: i4 v,h,dc,ddl,ddr,vr,hd,vl,hu: 14% 12% 3% 7% 14% 15% 13% 11% 11%
x264 [info]: i8c dc,h,v,p: 36% 27% 23% 14%
x264 [info]: Weighted P-Frames: Y:34.5% UV:16.7%
x264 [info]: ref P L0: 56.4% 17.3% 12.1% 4.6% 3.3% 2.8% 2.5% 0.9% 0.1%
x264 [info]: ref B L0: 92.1% 4.6% 1.6% 0.9% 0.5% 0.3%
x264 [info]: ref B L1: 98.5% 1.5%
x264 [info]: kb/s:1079.88

x264 [total]: encoded 110448 frames, 18.81 fps, 1079.88 kb/s
GeneralComplete name : D:\Torrents\Maximka.1952.DVDRip.x264.640x.rip by Frost O.S.mp4Format : MPEG-4Format profile : Base MediaCodec ID : isom (isom)File size : 638 MiBDuration : 1 h 13 minOverall bit rate mode : VariableOverall bit rate : 1 212 kb/sEncoded date : UTC 2017-07-07 14:33:57Tagged date : UTC 2017-07-07 14:33:57Writing application : My MP4Box GUI 0.6.0.6

VideoID : 1Format : AVCFormat/Info : Advanced Video CodecFormat profile : High@L4.1Format settings, CABAC : YesFormat settings, ReFrames : 7 framesCodec ID : avc1Codec ID/Info : Advanced Video CodingDuration : 1 h 13 minBit rate : 1 080 kb/sMaximum bit rate : 3 629 kb/sWidth : 472 pixelsHeight : 360 pixelsDisplay aspect ratio : 4:3Frame rate mode : ConstantFrame rate : 25.000 FPSColor space : YUVChroma subsampling : 4:2:0Bit depth : 8 bitsScan type : ProgressiveBits/(Pixel*Frame) : 0.254Stream size : 569 MiB (89%)Title : Maximka.1952.DVDRip.x264.640x.rip by Frost O.S.mp4Writing library : x264 core 148 r2744 b97ae06Encoding settings : cabac=1 / ref=7 / deblock=1:-1:0 / analyse=0x3:0x113 / me=umh / subme=11 / psy=1 / psy_rd=1.00:0.00 / mixed_ref=1 / me_range=48 / chroma_me=1 / trellis=2 / 8x8dct=1 / cqm=0 / deadzone=21,11 / fast_pskip=0 / chroma_qp_offset=-2 / threads=4 / lookahead_threads=1 / sliced_threads=0 / nr=0 / decimate=0 / interlaced=0 / bluray_compat=0 / constrained_intra=0 / bframes=8 / b_pyramid=2 / b_adapt=2 / b_bias=0 / direct=3 / weightb=1 / open_gop=0 / weightp=2 / keyint=250 / keyint_min=25 / scenecut=40 / intra_refresh=0 / rc=2pass / mbtree=0 / bitrate=1080 / ratetol=1.0 / qcomp=0.70 / qpmin=0 / qpmax=69 / qpstep=4 / cplxblur=20.0 / qblur=0.5 / ip_ratio=1.40 / pb_ratio=1.30 / aq=1:1.00Encoded date : UTC 2017-07-07 14:18:10Tagged date : UTC 2017-07-07 14:34:28Color range : LimitedColor primaries : BT.601 PALTransfer characteristics : BT.470 System B, BT.470 System GMatrix coefficients : BT.601

AudioID : 2Format : AACFormat/Info : Advanced Audio CodecFormat profile : LCCodec ID : 40Duration : 1 h 13 minBit rate mode : VariableBit rate : 128 kb/sMaximum bit rate : 132 kb/sChannel(s) : 2 channelsChannel positions : Front: L RSampling rate : 48.0 kHzFrame rate : 46.875 FPS (1024 spf)Compression mode : LossyStream size : 67.4 MiB (11%)Encoded date : UTC 2017-07-07 14:34:27Tagged date : UTC 2017-07-07 14:34:28


Трекер:  [ 07-Июл-2017 18:12 ]

  

Скачать .torrent

Размер .torrent файла 13 KB


Размер: 638 MB
Хэш (hash) релиза: 76365ce45f7f4fcc8b70c1ca2ebfa6d4c212d368

Еще никто не оставлял запись к записи скачать торрент [VIDEO] Максимка . Будь первым!

!Обратная связь