Скачать через торрент [VIDEO] Матрос Чижик бесплатно русская версия torrent активатор

Если у вас наблюдаются проблемы со скриншотами, переходом по ссылками, скачиванием торрентов - проблемы в блокировщике рекламы AdBlock. #хорошегоДня!


Статистика раздачи
Размер:  708 MB   |    Зарегистрирован:  5 месяцев 6 дней   |    .torrent скачан:  23 раза   |   
Раздают:  1  
   
Загрузка...
 
Автор Сообщение

Galfimbul

avatar Galfimbul


Матрос Чижик
Год выпуска: 1955
Страна: СССР
Жанр: мелодрама
Продолжительность: 01:21:38
Перевод: не требуется
Субтитры: нетРежиссер: Владимир БраунВ ролях: Надежда Семенцова, Сергей Петров, Владимир Емельянов, Михаил Кузнецов, Иван Рыжов, Надежда Чередниченко, Александр Мельников, Валентина Телегина, Михаил Трояновский и другие .Описание: Получив ранение во время учений, матрос Чижик направляется денщиком в дом капитана Лузгина. Супруга капитана — молодая красивая женщина — очень жестоко обращается с денщиком, постоянно унижает его, считая холопом. Единственная отрада в жизни матроса — общение с маленьким барчуком Шурой, добрым, справедливым и чутким мальчиком.

Однажды, не выдержав оскорблений хозяйки, денщик решает бежать. Останавливает его лишь непредвиденное обстоятельство: тяжелейшее воспаление легких у ребенка. Неусыпной нянькой, ни на минуту не покидая Шуру, сидит Чижик у его постели, буквально сражаясь со смертью. Релиз группы Качество: DVDRip / рип с DVD5 "Сейприс"
Формат: MP4
Видео кодек: H.264
Аудио кодек: AAC
Видео: 468x360 AR:1.3 1080 kbps 25 fps
Аудио: 2ch 48 kHz 128 kbps
avs [info]: 468x360p 1:1 @ 25/1 fps (cfr)
x264 [info]: using SAR=1/1
x264 [info]: using cpu capabilities: MMX2 SSE2Fast SSSE3 SSE4.2 AVX FMA3 AVX2 LZCNT BMI2
x264 [info]: profile High, level 4.1

x264 [info]: frame I:668 Avg QP:16.27 size: 28910
x264 [info]: frame P:23707 Avg QP:18.89 size: 10790
x264 [info]: frame B:98091 Avg QP:20.69 size: 3938
x264 [info]: consecutive B-frames: 1.0% 1.0% 3.5% 19.1% 18.0% 37.8% 9.8% 5.6% 2.9% 1.3%
x264 [info]: mb I I16..4: 1.2% 75.6% 23.2%
x264 [info]: mb P I16..4: 0.3% 7.3% 1.5% P16..4: 31.1% 38.6% 18.1% 2.7% 0.3% skip: 0.1%
x264 [info]: mb B I16..4: 0.1% 0.8% 0.2% B16..8: 36.1% 24.8% 4.3% direct:13.0% skip:20.8% L0:41.8% L1:34.0% BI:24.2%
x264 [info]: 8x8 transform intra:77.7% inter:58.2%
x264 [info]: direct mvs spatial:96.5% temporal:3.5%
x264 [info]: coded y,uvDC,uvAC intra: 82.9% 78.7% 45.0% inter: 42.3% 38.9% 6.0%
x264 [info]: i16 v,h,dc,p: 22% 15% 5% 58%
x264 [info]: i8 v,h,dc,ddl,ddr,vr,hd,vl,hu: 14% 11% 10% 8% 11% 11% 11% 11% 12%
x264 [info]: i4 v,h,dc,ddl,ddr,vr,hd,vl,hu: 14% 26% 7% 6% 10% 10% 10% 8% 10%
x264 [info]: i8c dc,h,v,p: 31% 30% 25% 14%
x264 [info]: Weighted P-Frames: Y:40.5% UV:16.5%
x264 [info]: ref P L0: 38.4% 13.5% 15.1% 8.7% 6.7% 5.4% 4.7% 3.1% 3.0% 1.3% 0.0%
x264 [info]: ref B L0: 69.5% 12.6% 6.5% 3.9% 2.9% 2.5% 1.5% 0.5%
x264 [info]: ref B L1: 94.2% 5.8%
x264 [info]: kb/s:1080.08

encoded 122466 frames, 26.77 fps, 1080.08 kb/s
GeneralComplete name : D:\Torrents\Matros Chizhuk.1955.DVDRip.x264.640x.rip by Frost O.S.mp4Format : MPEG-4Format profile : Base MediaCodec ID : isom (isom)File size : 708 MiBDuration : 1 h 21 minOverall bit rate mode : VariableOverall bit rate : 1 212 kb/sEncoded date : UTC 2017-07-07 17:03:37Tagged date : UTC 2017-07-07 17:03:37Writing application : My MP4Box GUI 0.6.0.6

VideoID : 1Format : AVCFormat/Info : Advanced Video CodecFormat profile : High@L4.1Format settings, CABAC : YesFormat settings, ReFrames : 9 framesCodec ID : avc1Codec ID/Info : Advanced Video CodingDuration : 1 h 21 minBit rate : 1 080 kb/sMaximum bit rate : 4 636 kb/sWidth : 468 pixelsHeight : 360 pixelsDisplay aspect ratio : 4:3Frame rate mode : ConstantFrame rate : 25.000 FPSColor space : YUVChroma subsampling : 4:2:0Bit depth : 8 bitsScan type : ProgressiveBits/(Pixel*Frame) : 0.256Stream size : 631 MiB (89%)Title : Matros Chizhuk.1955.DVDRip.x264.640x.rip by Frost O.S.mp4Writing library : x264 core 148 r2744 b97ae06Encoding settings : cabac=1 / ref=9 / deblock=1:-1:-1 / analyse=0x3:0x133 / me=umh / subme=11 / psy=1 / psy_rd=1.10:0.00 / mixed_ref=1 / me_range=48 / chroma_me=1 / trellis=2 / 8x8dct=1 / cqm=0 / deadzone=21,11 / fast_pskip=0 / chroma_qp_offset=-2 / threads=6 / lookahead_threads=1 / sliced_threads=0 / nr=0 / decimate=0 / interlaced=0 / bluray_compat=0 / constrained_intra=0 / bframes=9 / b_pyramid=2 / b_adapt=2 / b_bias=0 / direct=3 / weightb=1 / open_gop=0 / weightp=2 / keyint=250 / keyint_min=25 / scenecut=40 / intra_refresh=0 / rc=2pass / mbtree=0 / bitrate=1080 / ratetol=1.0 / qcomp=0.70 / qpmin=0 / qpmax=69 / qpstep=4 / cplxblur=20.0 / qblur=0.5 / ip_ratio=1.40 / pb_ratio=1.30 / aq=1:0.80Encoded date : UTC 2017-07-07 16:48:31Tagged date : UTC 2017-07-07 17:04:30Color range : LimitedColor primaries : BT.601 PALTransfer characteristics : BT.470 System B, BT.470 System GMatrix coefficients : BT.601

AudioID : 2Format : AACFormat/Info : Advanced Audio CodecFormat profile : LCCodec ID : 40Duration : 1 h 21 minBit rate mode : VariableBit rate : 128 kb/sMaximum bit rate : 133 kb/sChannel(s) : 2 channelsChannel positions : Front: L RSampling rate : 48.0 kHzFrame rate : 46.875 FPS (1024 spf)Compression mode : LossyStream size : 74.7 MiB (11%)Encoded date : UTC 2017-07-07 17:04:25Tagged date : UTC 2017-07-07 17:04:30


Трекер:  [ 07-Июл-2017 20:12 ]

  

Скачать .torrent

Размер .torrent файла 14 KB


Размер: 708 MB
Хэш (hash) релиза: 3c35cd269173c6043fa846d5d5e80a2bf92d25dc

Еще никто не оставлял запись к записи скачать торрент [VIDEO] Матрос Чижик . Будь первым!

!Обратная связь