Скачать через торрент [MULT] Лего Фильм: Бэтмен The LEGO Batman Movie бесплатно русская версия torrent активатор

Если у вас наблюдаются проблемы со скриншотами, переходом по ссылками, скачиванием торрентов - проблемы в блокировщике рекламы AdBlock. #хорошегоДня!


Статистика раздачи
Размер:  476 MB   |    Зарегистрирован:  5 месяцев 8 дней   |    .torrent скачан:  19 раз   |   
Раздают:  1  
   
Загрузка...
 
Автор Сообщение

Galfimbul

avatar Galfimbul


Лего Фильм: Бэтмен / The LEGO Batman Movie«Всегда будь собой. Если только ты не Бэтмен»
Год выпуска: 2017
Страна: США, Дания / DC Entertainment
Жанр: мультфильм, фэнтези, боевик, комедия, приключения
Продолжительность: 01:44:30
Перевод: Русский Профессиональный (полное дублирование) Blu-ray CEE
Субтитры: нетРежиссер: Крис МакКей / Chris McKayРоли озвучивали: Уилл Арнетт, Майкл Сера, Розарио Доусон, Рэйф Файнс, Сири, Зак Галифианакис, Дженни Слейт, Джейсон Манцукас, Конан О’Брайен, Даг Бенсон и другие .Описание: Готэму вновь грозит опасность. И на его стражу становится единственный герой, которого заслуживает этот город — Бэтмен, альтер-эго миллиардера Брюса Уэйна, живущего в своем огромном родовом поместье вместе с дворецким Альфредом. Но в этот раз супергерой вынужден взять в напарники парня по имени Дик Грейсон, которого он, сам того не помня, усыновил на одном из светских приемов. Новоиспеченный Робин составит Бэтмену компанию в борьбе с его заклятым врагом Джокером, сбежавшим из психиатрической больницы «Аркхем», а также Харли Куинн, готовой на самые сумасшедшие злодеяния, чтобы оставить в дураках всю «Лигу Справедливости», включая Бэтгерл. Релиз группы Качество: HDRip / рип с BDRip 720p
Формат: MP4
Видео кодек: XviD
Аудио кодек: AAC
Видео: 480х200 AR:2.40 505 kbps 23.976 fps
Аудио: [Russian] 2ch 48 kHz 128 kbps - Профессиональный (полное дублирование) Blu-ray CEE
GeneralComplete name : D:\Torrents\The LEGO Batman Movie.2017.HDRip.XviD.480x.rip by Frost O.S.mp4Format : MPEG-4Format profile : Base MediaCodec ID : isom (isom)File size : 476 MiBDuration : 1 h 44 minOverall bit rate mode : VariableOverall bit rate : 637 kb/sEncoded date : UTC 2017-07-09 12:46:31Tagged date : UTC 2017-07-09 12:46:31Writing application : My MP4Box GUI 0.6.0.6

VideoID : 1Format : MPEG-4 VisualFormat profile : Advanced Simple@L5Format settings, BVOP : YesFormat settings, QPel : NoFormat settings, GMC : No warppointsFormat settings, Matrix : CustomCodec ID : 20Duration : 1 h 44 minBit rate mode : VariableBit rate : 505 kb/sMaximum bit rate : 3 184 kb/sWidth : 480 pixelsHeight : 200 pixelsDisplay aspect ratio : 2.40:1Frame rate mode : VariableFrame rate : 23.976 (23976/1000) FPSMinimum frame rate : 11.988 FPSMaximum frame rate : 23.976 FPSOriginal frame rate : 23.976 (24000/1001) FPSColor space : YUVChroma subsampling : 4:2:0Bit depth : 8 bitsScan type : ProgressiveCompression mode : LossyBits/(Pixel*Frame) : 0.219Stream size : 377 MiB (79%)Title : The LEGO Batman Movie.2017.HDRip.XviD.480x.rip by Frost O.S.mp4Writing library : XviD 1.2.1 (UTC 2008-12-04)Encoded date : UTC 2017-07-09 12:46:31Tagged date : UTC 2017-07-09 12:46:48

AudioID : 2Format : AACFormat/Info : Advanced Audio CodecFormat profile : LCCodec ID : 40Duration : 1 h 44 minBit rate mode : VariableBit rate : 128 kb/sMaximum bit rate : 137 kb/sChannel(s) : 2 channelsChannel positions : Front: L RSampling rate : 48.0 kHzFrame rate : 46.875 FPS (1024 spf)Compression mode : LossyStream size : 95.7 MiB (20%)Title : Russian / Dub, Blu-ray CEEEncoded date : UTC 2017-07-09 12:46:39Tagged date : UTC 2017-07-09 12:46:48


Трекер:  [ 09-Июл-2017 16:12 ]

  

Скачать .torrent

Размер .torrent файла 19 KB


Размер: 476 MB
Хэш (hash) релиза: c41a69ed033a1f991f4aa4d9e6cba02877242c2d

Еще никто не оставлял запись к записи скачать торрент [MULT] Лего Фильм: Бэтмен The LEGO Batman Movie . Будь первым!

!Обратная связь