Скачать через торрент [MULT] Лего Фильм: Бэтмен The LEGO Batman Movie бесплатно русская версия torrent активатор

Если у вас наблюдаются проблемы со скриншотами, переходом по ссылками, скачиванием торрентов - проблемы в блокировщике рекламы AdBlock. #хорошегоДня!


Статистика раздачи
Размер:  1.46 GB   |    Зарегистрирован:  5 месяцев 6 дней   |    .torrent скачан:  37 раз   |   
Раздают:  2  
   
Загрузка...
 
Автор Сообщение

Galfimbul

avatar Galfimbul


Лего Фильм: Бэтмен / The LEGO Batman Movie«Всегда будь собой. Если только ты не Бэтмен»
Год выпуска: 2017
Страна: США, Дания / DC Entertainment
Жанр: мультфильм, фэнтези, боевик, комедия, приключения
Продолжительность: 01:44:30
Перевод: Русский Профессиональный (полное дублирование) Blu-ray CEE
Оригинальная дорожка: Есть
Субтитры: русские (Forced, Full), английские (Full, SDH)Режиссер: Крис МакКей / Chris McKayРоли озвучивали: Уилл Арнетт, Майкл Сера, Розарио Доусон, Рэйф Файнс, Сири, Зак Галифианакис, Дженни Слейт, Джейсон Манцукас, Конан О’Брайен, Даг Бенсон и другие .Описание: Готэму вновь грозит опасность. И на его стражу становится единственный герой, которого заслуживает этот город — Бэтмен, альтер-эго миллиардера Брюса Уэйна, живущего в своем огромном родовом поместье вместе с дворецким Альфредом. Но в этот раз супергерой вынужден взять в напарники парня по имени Дик Грейсон, которого он, сам того не помня, усыновил на одном из светских приемов. Новоиспеченный Робин составит Бэтмену компанию в борьбе с его заклятым врагом Джокером, сбежавшим из психиатрической больницы «Аркхем», а также Харли Куинн, готовой на самые сумасшедшие злодеяния, чтобы оставить в дураках всю «Лигу Справедливости», включая Бэтгерл. Релиз группы Качество: BDRip / рип с Blu-ray disc 1080p [CEE]
Формат: MP4
Видео кодек: H.264
Аудио кодек: AAC
Видео: 960х400 AR:2.40 1740 kbps 23.976 fps
Аудио №1: [Russian] 2ch 48 kHz 128 kbps - Профессиональный (полное дублирование) Blu-ray CEE
Аудио №2: [English] 2ch 48 kHz 128 kbps - Оригинал
avs [info]: 960x400p 1:1 @ 24000/1001 fps (cfr)
x264 [info]: using SAR=1/1
x264 [info]: using cpu capabilities: MMX2 SSE2Fast SSSE3 SSE4.2 AVX FMA3 AVX2 LZCNT BMI2
x264 [info]: profile High, level 4.1

x264 [info]: frame I:1595 Avg QP:17.10 size: 63194
x264 [info]: frame P:37828 Avg QP:21.03 size: 18920
x264 [info]: frame B:110909 Avg QP:21.99 size: 4904
x264 [info]: consecutive B-frames: 4.0% 4.3% 10.5% 36.9% 15.1% 17.2% 4.3% 3.5% 2.5% 1.7%
x264 [info]: mb I I16..4: 8.5% 60.8% 30.7%
x264 [info]: mb P I16..4: 2.8% 14.4% 4.0% P16..4: 31.1% 30.8% 10.7% 0.0% 0.0% skip: 6.3%
x264 [info]: mb B I16..4: 0.5% 1.8% 0.4% B16..8: 26.5% 14.4% 2.7% direct: 5.3% skip:48.3% L0:41.2% L1:44.0% BI:14.8%
x264 [info]: 8x8 transform intra:66.5% inter:70.0%
x264 [info]: direct mvs spatial:96.9% temporal:3.1%
x264 [info]: coded y,uvDC,uvAC intra: 79.0% 92.5% 75.3% inter: 18.1% 28.2% 13.9%
x264 [info]: i16 v,h,dc,p: 5% 11% 6% 78%
x264 [info]: i8 v,h,dc,ddl,ddr,vr,hd,vl,hu: 10% 13% 4% 8% 12% 11% 14% 11% 16%
x264 [info]: i4 v,h,dc,ddl,ddr,vr,hd,vl,hu: 13% 14% 4% 8% 13% 12% 13% 10% 14%
x264 [info]: i8c dc,h,v,p: 33% 27% 17% 23%
x264 [info]: Weighted P-Frames: Y:18.5% UV:15.9%
x264 [info]: ref P L0: 50.5% 12.5% 16.2% 5.7% 4.5% 3.3% 3.0% 1.9% 2.1% 0.4% 0.0%
x264 [info]: ref B L0: 78.7% 9.5% 4.7% 2.5% 1.8% 1.4% 1.0% 0.5%
x264 [info]: ref B L1: 95.4% 4.6%
x264 [info]: kb/s:1735.80

encoded 150332 frames, 15.43 fps, 1735.81 kb/s
GeneralComplete name : D:\Torrents\The LEGO Batman Movie.2017.BDRip.x264.960x.rip by Frost O.S.mp4Format : MPEG-4Format profile : Base MediaCodec ID : isom (isom)File size : 1.46 GiBDuration : 1 h 44 minOverall bit rate mode : VariableOverall bit rate : 1 998 kb/sEncoded date : UTC 2017-07-09 13:02:15Tagged date : UTC 2017-07-09 13:02:15Writing application : My MP4Box GUI 0.6.0.6

VideoID : 1Format : AVCFormat/Info : Advanced Video CodecFormat profile : High@L4.1Format settings, CABAC : YesFormat settings, ReFrames : 9 framesCodec ID : avc1Codec ID/Info : Advanced Video CodingDuration : 1 h 44 minBit rate : 1 740 kb/sMaximum bit rate : 10.3 Mb/sWidth : 960 pixelsHeight : 400 pixelsDisplay aspect ratio : 2.40:1Frame rate mode : ConstantFrame rate : 23.976 (24000/1001) FPSColor space : YUVChroma subsampling : 4:2:0Bit depth : 8 bitsScan type : ProgressiveBits/(Pixel*Frame) : 0.189Stream size : 1.27 GiB (87%)Title : The LEGO Batman Movie.2017.BDRip.x264.960x.rip by Frost O.S.mp4Writing library : x264 core 148 r2744 b97ae06Encoding settings : cabac=1 / ref=9 / deblock=1:-2:-2 / analyse=0x3:0x113 / me=umh / subme=11 / psy=1 / psy_rd=0.70:0.20 / mixed_ref=1 / me_range=32 / chroma_me=1 / trellis=2 / 8x8dct=1 / cqm=0 / deadzone=21,11 / fast_pskip=0 / chroma_qp_offset=-3 / threads=6 / lookahead_threads=1 / sliced_threads=0 / nr=0 / decimate=0 / interlaced=0 / bluray_compat=0 / constrained_intra=0 / bframes=9 / b_pyramid=2 / b_adapt=2 / b_bias=0 / direct=3 / weightb=1 / open_gop=0 / weightp=2 / keyint=250 / keyint_min=23 / scenecut=40 / intra_refresh=0 / rc=2pass / mbtree=0 / bitrate=1740 / ratetol=1.0 / qcomp=0.70 / qpmin=0 / qpmax=69 / qpstep=4 / cplxblur=20.0 / qblur=0.5 / ip_ratio=1.40 / pb_ratio=1.30 / aq=2:0.90Encoded date : UTC 2017-07-09 10:24:42Tagged date : UTC 2017-07-09 13:02:47Color range : LimitedColor primaries : BT.709Transfer characteristics : BT.709Matrix coefficients : BT.709

Audio #1ID : 2Format : AACFormat/Info : Advanced Audio CodecFormat profile : LCCodec ID : 40Duration : 1 h 44 minBit rate mode : VariableBit rate : 128 kb/sMaximum bit rate : 137 kb/sChannel(s) : 2 channelsChannel positions : Front: L RSampling rate : 48.0 kHzFrame rate : 46.875 FPS (1024 spf)Compression mode : LossyStream size : 95.7 MiB (6%)Title : Russian / Dub, Blu-ray CEEEncoded date : UTC 2017-07-09 13:02:40Tagged date : UTC 2017-07-09 13:02:47

Audio #2ID : 3Format : AACFormat/Info : Advanced Audio CodecFormat profile : LCCodec ID : 40Duration : 1 h 44 minBit rate mode : VariableBit rate : 128 kb/sMaximum bit rate : 140 kb/sChannel(s) : 2 channelsChannel positions : Front: L RSampling rate : 48.0 kHzFrame rate : 46.875 FPS (1024 spf)Compression mode : LossyStream size : 95.7 MiB (6%)Title : English / OriginalEncoded date : UTC 2017-07-09 13:02:44Tagged date : UTC 2017-07-09 13:02:47

Text #1ID : 4Format : Timed TextCodec ID : tx3gDuration : 1 h 38 minBit rate mode : VariableBit rate : 4 b/sStream size : 3.24 KiB (0%)Title : Russian / ForcedForced : NoEncoded date : UTC 2017-07-09 13:02:47Tagged date : UTC 2017-07-09 13:02:47

Text #2ID : 5Format : Timed TextCodec ID : tx3gDuration : 1 h 44 minBit rate mode : VariableBit rate : 152 b/sStream size : 116 KiB (0%)Title : Russian / FullForced : NoEncoded date : UTC 2017-07-09 13:02:47Tagged date : UTC 2017-07-09 13:02:47

Text #3ID : 6Format : Timed TextCodec ID : tx3gDuration : 1 h 44 minBit rate mode : VariableBit rate : 109 b/sStream size : 83.2 KiB (0%)Title : English / FullForced : NoEncoded date : UTC 2017-07-09 13:02:47Tagged date : UTC 2017-07-09 13:02:47

Text #4ID : 7Format : Timed TextCodec ID : tx3gDuration : 1 h 44 minBit rate mode : VariableBit rate : 118 b/sStream size : 90.3 KiB (0%)Title : English / SDHForced : NoEncoded date : UTC 2017-07-09 13:02:47Tagged date : UTC 2017-07-09 13:02:47


Трекер:  [ 09-Июл-2017 16:42 ]

  

Скачать .torrent

Размер .torrent файла 15 KB


Размер: 1.46 GB
Хэш (hash) релиза: c7da33d6a00c073daf27f512c0b1932ca1850d71

Еще никто не оставлял запись к записи скачать торрент [MULT] Лего Фильм: Бэтмен The LEGO Batman Movie . Будь первым!

!Обратная связь