Скачать через торрент Да здравствует король Джулиан! All Hail King Julien Фильм бесплатно в хорошем качестве torrent

Скачивайте на UnionPeer.org фильмы через торрент без регистрации. Новинки кино в хорошем качестве через торрент. На UnionPeer.org можно скачать через торрент фильмы 2014 и 2015 годов. Самые новые фильмы.

Скачать торрент Да здравствует король Джулиан! All Hail King Julien бесплатно через .torrent фильм мультфильм сериал

Если у вас наблюдаются проблемы со скриншотами, переходом по ссылками, скачиванием торрентов - проблемы в блокировщике рекламы AdBlock. #хорошегоДня!


Статистика раздачи
Размер:  10.13 GB   |    Зарегистрирован:  5 месяцев 2 дня   |    .torrent скачан:  26 раз   |   
Раздают:  1  
   
Загрузка...
 
Автор Сообщение

Galfimbul

avatar Galfimbul


Да здравствует король Джулиан! / All Hail King Julien

Страна: США
Жанр: Мультсериал, комедия, приключения, семейный
Продолжительность серии: 10 х ~ 00:22:00
Год выпуска: 2014-2015
Перевод: Профессиональный (дублированный)
Русские субтитры: нет

Режиссёр: Чристо Стамболиев, Мэтт Энгстром, Джеймс Вуттон
Роли озвучивали: Дэнни Джейкобс, Энди Рихтер, Кевин Майкл Ричардсон, Индия де Бефорт, Джефф Беннетт, Дебра Уилсон, Сара Тайр, Бетси Содаро, Генри Уинклер, Дуайт Шульц, Дидрих Бадер, Джеймс Урбаняк

Описание: Спин-офф серии мультипликационных фильмов «Мадагаскар». Мультсериал рассказывает об инфантильном и эгоцентричном короле лемуров Джулиане и его жизни до встречи с героями мультфильма «Мадагаскар». Его девиз: «Лови момент!» Как полноправный правитель своего королевства, он постоянно закатывает грандиозные вечеринки и строго следит за тем, чтобы каждый день его подданные проживали как последний.



Качество: WEBRip 1080p
Формат: MKV
Видео: MPEG-4 AVC, 1920x1080 [16:9], 25.000 fps, ~ 6500 Kbps
Аудио 1: [Русский AC3, 48 kHz, 2 ch, 192 Kbps - СТС / SDI Media
Аудио 2: [Украинский] AC3, 48 kHz, 2 ch, 192 Kbps - QTV
Аудио 3: [Английский] AC3, 48 kHz, 6 ch, 384 Kbps
Субтитры: Английские (SDH)

1 сезон
2 сезон
3 сезон
4 сезон
Релиз CasStudio - BenderBEST
• Благодарим за качественные записи дубляжа SLuMeP
• Работа со звуком - BenderBEST
ОбщееУникальный идентификатор : 170499041108823202577005289964687102406 (0x8044EBBE88E4393C8452CD848BB091C6)Полное имя : D:\All.Hail.King.Julien.S01.1080p.AMZN.WEBRip.Rus.Ukr.Eng_CasStudio\All.Hail.King.Julien.S01E01.1080p.AMZN.WEBRip.Rus.Ukr.Eng_CasStudio.mkvФормат : MatroskaВерсия формата : Version 4 / Version 2Размер файла : 1,16 ГбайтПродолжительность : 22 м. 6 с.Режим общего битрейта : ПеременныйОбщий поток : 7537 Кбит/секНазвание фильма : All Hail King Julien S01E01 - ReJliz CasStudio by BenderBESTДата кодирования : UTC 2017-06-25 11:16:14Программа кодирования : mkvmerge v6.9.1 ('Blue Panther') 32bit built on Apr 18 2014 18:15:44Библиотека кодирования : libebml v1.3.0 + libmatroska v1.4.1

ВидеоИдентификатор : 1Формат : AVCФормат/Информация : Advanced Video CodecПрофиль формата : High@L4Параметр CABAC формата : ДаПараметр ReFrames формата : 4 кадраИдентификатор кодека : V_MPEG4/ISO/AVCПродолжительность : 22 м. 6 с.Вид битрейта : ПеременныйБитрейт : 6619 Кбит/секМаксимальный битрейт : 15,0 Мбит/секШирина : 1920 пикселейВысота : 1080 пикселейСоотношение сторон : 16:9Режим частоты кадров : ПостоянныйЧастота кадров : 25,000 кадров/секЧастота кадров в оригинале : 23,976 (24000/1001) кадра/секЦветовое пространство : YUVСубдискретизация насыщенности : 4:2:0Битовая глубина : 8 битТип развёртки : ПрогрессивнаяБит/(Пиксели*Кадры) : 0.128Размер потока : 1,02 Гбайт (88%)Библиотека кодирования : x264 core 148 r2623 d5b2374Настройки программы : cabac=1 / ref=4 / deblock=1:-1:-1 / analyse=0x3:0x133 / me=umh / subme=9 / psy=1 / psy_rd=1.00:0.15 / mixed_ref=1 / me_range=24 / chroma_me=1 / trellis=2 / 8x8dct=1 / cqm=0 / deadzone=21,11 / fast_pskip=1 / chroma_qp_offset=-3 / threads=34 / lookahead_threads=5 / sliced_threads=0 / nr=150 / decimate=1 / interlaced=0 / bluray_compat=0 / constrained_intra=0 / bframes=8 / b_pyramid=2 / b_adapt=2 / b_bias=0 / direct=3 / weightb=1 / open_gop=0 / weightp=2 / keyint=120 / keyint_min=61 / scenecut=0 / intra_refresh=0 / rc_lookahead=120 / rc=crf / mbtree=1 / crf=18.0 / qcomp=0.60 / qpmin=0 / qpmax=69 / qpstep=4 / vbv_maxrate=15000 / vbv_bufsize=31250 / crf_max=0.0 / nal_hrd=vbr / filler=0 / ip_ratio=1.40 / aq=3:1.00Язык : EnglishDefault : ДаForced : ДаЦветовой диапазон : LimitedОсновные цвета : BT.709Характеристики трансфера : BT.709Коэффициенты матрицы : BT.709

Аудио #1Идентификатор : 2Формат : AC-3Формат/Информация : Audio Coding 3Параметр Endianness формата : BigИдентификатор кодека : A_AC3Продолжительность : 22 м. 6 с.Вид битрейта : ПостоянныйБитрейт : 192 Кбит/секКаналы : 2 каналаРасположение каналов : Front: L RЧастота : 48,0 КГцЧастота кадров : 31,250 кадров/сек (1536 spf)Битовая глубина : 16 битМетод сжатия : С потерямиРазмер потока : 30,4 Мбайт (3%)Заголовок : AC3 2.0 @ 192 kbps - DUB, СТС / SDI MediaЯзык : RussianServiceKind/String : Complete MainDefault : ДаForced : Да

Аудио #2Идентификатор : 3Формат : AC-3Формат/Информация : Audio Coding 3Параметр Endianness формата : BigИдентификатор кодека : A_AC3Продолжительность : 22 м. 6 с.Вид битрейта : ПостоянныйБитрейт : 192 Кбит/секКаналы : 2 каналаРасположение каналов : Front: L RЧастота : 48,0 КГцЧастота кадров : 31,250 кадров/сек (1536 spf)Битовая глубина : 16 битМетод сжатия : С потерямиРазмер потока : 30,4 Мбайт (3%)Заголовок : AC3 2.0 @ 192 kbps - MVO, QTVЯзык : UkrainianServiceKind/String : Complete MainDefault : НетForced : Нет

Аудио #3Идентификатор : 4Формат : AC-3Формат/Информация : Audio Coding 3Параметр Endianness формата : BigИдентификатор кодека : A_AC3Продолжительность : 22 м. 6 с.Вид битрейта : ПостоянныйБитрейт : 384 Кбит/секКаналы : 6 каналовРасположение каналов : Front: L C R, Side: L R, LFEЧастота : 48,0 КГцЧастота кадров : 31,250 кадров/сек (1536 spf)Битовая глубина : 16 битМетод сжатия : С потерямиРазмер потока : 60,7 Мбайт (5%)Заголовок : AC3 5.1 @ 384 kbpsЯзык : EnglishServiceKind/String : Complete MainDefault : НетForced : Нет

ТекстИдентификатор : 5Формат : UTF-8Идентификатор кодека : S_TEXT/UTF8Идентификатор кодека/Информация : UTF-8 Plain TextЗаголовок : SDHЯзык : EnglishDefault : НетForced : Нет


Трекер:  [ 09-Июл-2017 19:54 ]

  

Скачать .torrent

Размер .torrent файла 52 KB


Размер: 10.13 GB
Хэш (hash) релиза: 108a0b88aba38c06bc969ea420cf3599b9b8b8a5
Подписка на обновления:

Торренты, похожие на Да здравствует король Джулиан! All Hail King Julien скачать торрент

Форум Название Автор Размер S L Добавлен
Мультсериалы ·· Да здравствует Король Джулиан / All Hail King Julien / Сезон: 1-3 (4) / Серии: 1-10 (10), 1-16 (16), 1-13 (13), 0 (13) / (Мэтт Энгстром / Matt Engstrom) [2014-2016, мультфильм, семейный, WEB-DLRip, WEBRip] VO (6 из 52) + Original + Sub (Rus, Eng) Galfimbul 1248948856311.63 GB 0 0 1481918536

23:02

16-Дек-16

Мультсериалы ·· Да здравствует Король Джулиан / All Hail King Julien / Сезон: 1-3 (4) / Серии: 1-10 (10), 1-16 (16), 1-10 (13), 0 (13) / (Мэтт Энгстром / Matt Engstrom) [2014-2016, мультфильм, семейный, WEB-DLRip, WEBRip] VO (6 из 52) + Original + Sub (Rus, Eng) Galfimbul 1156298691410.77 GB 0 0 1480677644

14:20

2-Дек-16

Мультсериалы ·· Да здравствует Король Джулиан / All Hail King Julien / Сезон: 1-3 (4) / Серии: 1-10 (10), 1-16 (16), 1-9 (13), 0 (13) / (Мэтт Энгстром / Matt Engstrom) [2014-2016, мультфильм, семейный, WEB-DLRip, WEBRip] VO (6 из 52) + Original + Sub (Rus, Eng) Galfimbul 1125006724410.48 GB 0 0 1480193060

23:44

26-Ноя-16

Мультсериалы ·· Да здравствует Король Джулиан / All Hail King Julien / Сезон: 1-2 (3) / Серии: 1-10 (10), 1-10, 13 (16) / (Мэтт Энгстром / Matt Engstrom) [2014-2016, мультфильм, комедия, семейный, WEBRip] VO (6 из 26) + Original + Sub (Rus, Eng) Galfimbul 64445333446 GB 0 0 1472069464

23:11

24-Авг-16

Мультсериалы ·· Да здравствует Король Джулиан / All Hail King Julien / Сезон: 1-2 (3) / Серии: 1-10 (10), 1-10 (16) / (Мэтт Энгстром / Matt Engstrom) [2014-2016, мультфильм, комедия, семейный, WEBRip] VO (6 из 26) + Original + Sub (Rus, Eng) Galfimbul 61478138255.73 GB 0 0 1471200074

21:41

14-Авг-16

Мультсериалы ·· Да здравствует Король Джулиан / All Hail King Julien / Сезон: 1-3 (4) / Серии: 1-10 (10), 1-16 (16), 6 (13), 0 (13) / (Мэтт Энгстром / Matt Engstrom) [2014-2016, мультфильм, семейный, WEB-DLRip, WEBRip] VO (6 из 52) + Original + Sub (Rus, Eng) Galfimbul 103423268269.63 GB 0 0 1479580764

21:39

19-Ноя-16

Мультсериалы ·· Да здравствует Король Джулиан / All Hail King Julien / Сезон: 1-3 (4) / Серии: 1-10 (10), 1-16 (16), 5 (13), 0 (13) / (Мэтт Энгстром / Matt Engstrom) [2014-2016, мультфильм, семейный, WEB-DLRip, WEBRip] VO (6 из 52) + Original + Sub (Rus, Eng) Galfimbul 100256278869.34 GB 0 0 1479244130

00:08

16-Ноя-16

Мультсериалы ·· Да здравствует Король Джулиан / All Hail King Julien / Сезон: 1-2 (3) / Серии: 1-10 (10), 1-14 (16), 0 (13) / (Мэтт Энгстром / Matt Engstrom) [2014-2016, мультфильм, комедия, семейный, WEBRip] VO (6 из 39) + Original + Sub (Rus, Eng) Galfimbul 73336965486.83 GB 0 0 1473003235

18:33

4-Сен-16

Мультсериалы ·· Да здравствует Король Джулиан / All Hail King Julien / Сезон: 1-2 (3) / Серии: 1-10 (10), 1-11, 13 (16) / (Мэтт Энгстром / Matt Engstrom) [2014-2016, мультфильм, комедия, семейный, WEBRip] VO (6 из 26) + Original + Sub (Rus, Eng) Galfimbul 67411526386.28 GB 0 0 1472071254

23:40

24-Авг-16

Мультсериалы ·· Да здравствует Король Джулиан / All Hail King Julien / Сезон: 1-2 (3) / Серии: 1-10 (10), 1-9 (16) / (Мэтт Энгстром / Matt Engstrom) [2014-2016, мультфильм, комедия, семейный, WEBRip] VO (5 из 26) + Original + Sub (Rus, Eng) Galfimbul 58167484985.42 GB 0 0 1468094566

23:02

9-Июл-16

Мультсериалы ·· Да здравствует Король Джулиан / All Hail King Julien / Сезон: 1-2 (3) / Серии: 1-10 (10), 1-8 (16) / (Мэтт Энгстром / Matt Engstrom) [2014-2016, мультфильм, комедия, семейный, WEBRip] VO (5 из 26) + Original + Sub (Rus, Eng) Galfimbul 55208911325.14 GB 0 0 1465813923

13:32

13-Июн-16

Мультсериалы ·· Да здравствует Король Джулиан / All Hail King Julien / Сезон: 1-2 (3) / Серии: 1-10 (10), 1-7 (16) / (Мэтт Энгстром / Matt Engstrom) [2014-2016, мультфильм, комедия, семейный, WEBRip] VO (4 из 26) + Original + Sub (Rus, Eng) Galfimbul 51916750324.84 GB 0 0 1462736322

22:38

8-Май-16

Мультсериалы ·· Да здравствует Король Джулиан / All Hail King Julien / Сезон: 1-2 (3) / Серии: 1-10 (10), 1-7 (16) / (Мэтт Энгстром / Matt Engstrom) [2014-2016, мультфильм, комедия, семейный, WEBRip] VO (4 из 26) + Original + Sub (Rus, Eng) Galfimbul 51916430794.84 GB 0 0 1460893883

14:51

17-Апр-16

Мультсериалы ·· Да здравствует Король Джулиан / All Hail King Julien / Сезон: 1 / Серии: 05 из 10 (Мэтт Энгстром / Matt Engstrom, Джеймс Вуттон / James Wootton) [2014-2015, мультфильм, комедия, семейный, WEBRip 400p] VO (1 из 5) + Original + Rus sub + Eng sub Galfimbul 15203711101.42 GB 0 0 1428226820

12:40

5-Апр-15

Мультсериалы ·· Да здравствует Король Джулиан / All Hail King Julien / Сезон: 1 / Серии: 05 из 10 (Мэтт Энгстром / Matt Engstrom, Джеймс Вуттон / James Wootton) [2014-2015, мультфильм, комедия, семейный, WEBRip 720p] VO (1 из 5) + Original + Rus sub + Eng sub Galfimbul 29663942982.76 GB 0 0 1428226816

12:40

5-Апр-15

Еще никто не оставлял запись к записи скачать торрент Да здравствует король Джулиан! All Hail King Julien . Будь первым!

!Обратная связь