Скачать через торрент Беспокойный кентавр Centaur no Nayami бесплатно Аниме Все серии на русском torrent

Если у вас наблюдаются проблемы со скриншотами, переходом по ссылками, скачиванием торрентов - проблемы в блокировщике рекламы AdBlock. #хорошегоДня!


Статистика раздачи
Размер:  359 MB   |    Зарегистрирован:  5 месяцев 6 дней   |    .torrent скачан:  39 раз   |   
Раздают:  1  
   
Загрузка...
 
Автор Сообщение

Galfimbul

avatar Galfimbul


Беспокойный кентавр
Centaur no Nayami
Centaur's worries
A Centaur`s Life
セントールの悩み

Страна: Япония
Год выпуска: 2017 г.
Жанр: комедия, фэнтези, повседневность
Тип: TV
Продолжительность: 12 эп. по 24 мин.
Режиссер: Ойдзаки Фумитоси
Студия: Русские субтитры от SovetRomanticaОписание: Обыкновенное аниме про обыкновенные будни обыкновенной школьницы. Что может быть в этом интересного? А вот что. Эта школьница - кентавр! А вы думали, что кентавры не учатся в школе? Ещё как учатся, сидят за партой, дежурят в школе и даже физкультурой занимаются! Правда на форму им приходится тратить уйму метров ткани, но это мелочи. Вы когда-нибудь видели, как кентавр бежит стометровку? А как кентавр плавает в бассейне? Нет? И не увидите, если не посмотрите это аниме.

Главную героиню зовут Химено Кимихара, или же Химе. Она очень добрая и приветливая, но комплексует из-за своего высокого роста и размера груди. Но Химе не единственная необыкновенная девочка в классе. Нозоми наполовину дракониха, у Кёко рога имеются, у старосты класса есть настоящие крылья, а Сасусасу вообще змея наполовину! Окунитесь в мир, где необычные школьницы решают обычные проблемы с уроками, клубной деятельностью и, конечно, первой любовью!Информационные ссылки: AniDB | MyAnimeList | World ArtКачество: HDTVRip
Тип релиза: Без хардсаба
Формат видео: MP4
Наличие линковки: Нет
Релиз/Автор рипа: Ohys-Raws
Видео: x264, 8 bit, 1280x720, ~1854 Kbps, 23.976 fps
Аудио (int): AAC, 48000 Hz, ~205 Kbps, 2 ch
Субтитры #1-2 (ext): Rus, ASS
<div class="sp-wrap">
<div class="sp-head folded">MediaInfo</div>
<div class="sp-body">

Формат : MPEG-4Профиль формата : Base MediaИдентификатор кодека : isom (isom/avc1)Размер файла : 354 МбайтПродолжительность : 24 м. 0 с.Режим общего битрейта : ПеременныйОбщий поток : 2063 Кбит/секДата кодирования : UTC 2017-07-09 13:54:19Дата пометки : UTC 2017-07-09 13:54:19

ВидеоИдентификатор : 1Формат : AVCФормат/Информация : Advanced Video CodecПрофиль формата : Main@L4.1Параметр CABAC формата : ДаПараметр ReFrames формата : 4 кадраИдентификатор кодека : avc1Идентификатор кодека/Информация : Advanced Video CodingПродолжительность : 23 м. 59 с.Битрейт : 1854 Кбит/секМаксимальный битрейт : 11,8 Мбит/секШирина : 1280 пикселейВысота : 720 пикселейСоотношение сторон : 16:9Режим частоты кадров : ПостоянныйЧастота кадров : 23,976 (24000/1001) кадра/секЦветовое пространство : YUVСубдискретизация насыщенности : 4:2:0Битовая глубина : 8 битТип развёртки : ПрогрессивнаяБит/(Пиксели*Кадры) : 0.084Размер потока : 318 Мбайт (90%)Библиотека кодирования : x264 core 152 r2851+58 429492e t_mod_Custom [8-bit@all X86_64]Настройки программы : cabac=1 / ref=3 / deblock=1:0:0 / analyse=0x1:0x111 / me=hex / subme=7 / psy=1 / fade_compensate=0.00 / psy_rd=1.00:0.00 / mixed_ref=1 / me_range=16 / chroma_me=1 / trellis=1 / 8x8dct=0 / cqm=0 / deadzone=21,11 / fast_pskip=1 / chroma_qp_offset=-2 / threads=12 / lookahead_threads=2 / sliced_threads=0 / nr=0 / decimate=1 / interlaced=0 / bluray_compat=0 / constrained_intra=0 / fgo=0 / bframes=3 / b_pyramid=2 / b_adapt=1 / b_bias=0 / direct=1 / weightb=1 / open_gop=0 / weightp=2 / keyint=240 / keyint_min=1 / scenecut=40 / intra_refresh=0 / rc_lookahead=40 / rc=crf / mbtree=1 / crf=20.0000 / qcomp=0.60 / qpmin=0:0:0 / qpmax=69:69:69 / qpstep=4 / ip_ratio=1.40 / aq=1:1.50 / aq-sensitivity=10.00 / aq-factor=1.00:1.00:1.00 / aq2=0 / aq3=0Дата кодирования : UTC 2017-07-09 13:54:19Дата пометки : UTC 2017-07-09 13:54:21Цветовой диапазон : LimitedОсновные цвета : BT.709Характеристики трансфера : BT.709Коэффициенты матрицы : BT.709

АудиоИдентификатор : 2Формат : AACФормат/Информация : Advanced Audio CodecПрофиль формата : LCИдентификатор кодека : 40Продолжительность : 24 м. 0 с.Вид битрейта : ПеременныйБитрейт : 205 Кбит/секМаксимальный битрейт : 258 Кбит/секКаналы : 2 каналаРасположение каналов : Front: L RЧастота : 48,0 КГцЧастота кадров : 46,875 кадров/сек (1024 spf)Метод сжатия : С потерямиРазмер потока : 35,1 Мбайт (10%)Язык : JapaneseДата кодирования : UTC 2017-07-09 13:44:26Дата пометки : UTC 2017-07-09 13:54:21
</div>
</div>
01.


Трекер:  [ 10-Июл-2017 03:01 ]

  

Скачать .torrent

Размер .torrent файла 3 KB


Размер: 359 MB
Хэш (hash) релиза: bbb1eceafb46d5b8bd6aaf44c713144d5d303d30
Подписка на обновления:

Торренты, похожие на Беспокойный кентавр Centaur no Nayami скачать торрент

Форум Название Автор Размер S L Добавлен
Аниме | HD Rips ·· Беспокойный кентавр / Centaur no Nayami / Centaur's worries [TV] [01 из 12] [Без хардсаба] [JAP+SUB] [2017, комедия, фэнтези, повседневность, WEBRip] [1080p] Galfimbul 572801877546 MB 0 0 1499644963

03:02

10-Июл-17

Еще никто не оставлял запись к записи скачать торрент Беспокойный кентавр Centaur no Nayami . Будь первым!

!Обратная связь