Скачать через торрент Лагерь Лагерь Camp Camp Фильм бесплатно в хорошем качестве torrent

Скачивайте на UnionPeer.org фильмы через торрент без регистрации. Новинки кино в хорошем качестве через торрент. На UnionPeer.org можно скачать через торрент фильмы 2014 и 2015 годов. Самые новые фильмы.

Скачать торрент Лагерь Лагерь Camp Camp бесплатно через .torrent фильм мультфильм сериал

Если у вас наблюдаются проблемы со скриншотами, переходом по ссылками, скачиванием торрентов - проблемы в блокировщике рекламы AdBlock. #хорошегоДня!


Статистика раздачи
Размер:  139 MB   |    Зарегистрирован:  5 месяцев 3 дня   |    .torrent скачан:  37 раз   |   
Раздают:  1  
   
Загрузка...
 
Автор Сообщение

Galfimbul

avatar Galfimbul


Лагерь Лагерь / Camp Camp

Страна: США
Жанр: Комедия, приключения
Год выпуска: 2016
Продолжительность: 00:11:25

Перевод: Одноголосый закадровый NewStation
Режиссер: Джордан Свиерз, Майлз Луна, Керри Шоукросс / Jordan Cwierz, Miles Luna, Kerry Shawcross
Субтитры: нет

В ролях: Майлз Луна, Майкл Джонс, Элизабет Максвелл

Описание: Три ребенка, Макс, Нил и Никки, проводят летние каникулы в неблагополучном лагере под названием «Лагерь-Кэмпбелла», который находится под руководством вожатых, слишком веселого Дэвида и менее оптимистичной Гвен.

Доп. информация: В сериале присутствует ненормативная лексика.

Сэмпл: http://sendfile.su/1347536

Качество видео: WEBRip
Формат видео: MKV

Видео: AVC, 1920x1080, 16:9, 24,000 кадров/сек, 1385 Кбит/сек
Аудио #1: [RUS] 48 kHz, MP3, 2ch, ~192 kbps
Аудио #2: [ENG] 44 kHz, AAC, 2ch, ~126 kbps
Общее
Уникальный идентификатор : 178242269022964121080780536610277871326 (0x8618365B0AA902E69A429C5B5AACCEDE)
Полное имя : C:\Users\Darko\Downloads\Готово\Camp Camp, Episode 1 - Escape from Camp Campbell-002.mkv
Формат : Matroska
Версия формата : Version 4 / Version 2
Размер файла : 139 Мбайт
Продолжительность : 11 м. 25 с.
Общий поток : 1705 Кбит/сек
Дата кодирования : UTC 2017-07-09 21:10:53
Программа кодирования : mkvmerge v12.0.0 ('Trust / Lust') 32bit
Библиотека кодирования : libebml v1.3.4 + libmatroska v1.4.5

Видео
Идентификатор : 1
Формат : AVC
Формат/Информация : Advanced Video Codec
Профиль формата : High@L4
Параметр CABAC формата : Да
Параметр RefFrames формата : 3 кадра
Идентификатор кодека : V_MPEG4/ISO/AVC
Продолжительность : 11 м. 25 с.
Битрейт : 1385 Кбит/сек
Ширина : 1920 пикселей
Высота : 1080 пикселей
Соотношение сторон : 16:9
Режим частоты кадров : Постоянный
Частота кадров : 24,000 кадра/сек
Цветовое пространство : YUV
Субдискретизация насыщенности : 4:2:0
Битовая глубина : 8 бит
Тип развёртки : Прогрессивная
Бит/(Пиксели*Кадры) : 0.028
Размер потока : 113 Мбайт (81%)
Default : Да
Forced : Нет
Цветовой диапазон : Limited
Основные цвета : BT.709
Характеристики трансфера : BT.709
Коэффициенты матрицы : BT.709

Аудио #1
Идентификатор : 2
Формат : MPEG Audio
Версия формата : Version 1
Профиль формата : Layer 3
Идентификатор кодека : A_MPEG/L3
Идентификатор кодека/Подсказка : MP3
Продолжительность : 11 м. 25 с.
Вид битрейта : Постоянный
Битрейт : 192 Кбит/сек
Каналы : 2 канала
Частота : 48,0 КГц
Частота кадров : 41,667 кадра/сек (1152 SPF)
Метод сжатия : С потерями
Задержка видео : 3 мс.
Размер потока : 15,7 Мбайт (11%)
Заголовок : Rus NewStation
Default : Да
Forced : Нет

Аудио #2
Идентификатор : 3
Формат : AAC
Формат/Информация : Advanced Audio Codec
Профиль формата : LC
Идентификатор кодека : A_AAC
Продолжительность : 11 м. 25 с.
Битрейт : 126 Кбит/сек
Каналы : 2 канала
Расположение каналов : Front: L R
Частота : 44,1 КГц
Частота кадров : 43,066 кадра/сек (1024 SPF)
Метод сжатия : С потерями
Задержка видео : 6 мс.
Размер потока : 10,3 Мбайт (7%)
Заголовок : Original
Default : Нет
Forced : Нет
Внимание! Раздача ведётся путём добавления новых серий; при каждом добавлении создаётся новый торрент. Чтобы начать докачку новой серии, пользователям необходимо сделать следующее:
(1) остановить скачивание,
(2) удалить старый торрент у себя из клиента (старые серии удалять не надо),
(3) скачать новый торрент и запустить его у себя в клиенте вместо старого, при этом указать клиенту путь в старую папку куда и должно происходить скачивание новых серий.

Ваш клиент при этом должен произвести хеширование (проверку) старой папки (если не производит сам - помогите ему сделать это), и будет докачивать только те серии которых у вас ещё нет. Старые серии при этом не удаляются, а продолжают раздаваться!

Eсли вы уже удалили старые серии, то предотвратить повторную закачку старых серий можно, отжав галочку в соответствующих местах при запуске нового торрента. По возможности, желательно не удалять старые серии как можно дольше чтобы релизёр не столько продолжал раздавать старые серии, а смог сконцентрироваться на новых.
0.1 Побег из Лагеря Кемпбелл / Escape from Camp Campbell


Трекер:  [ 12-Июл-2017 23:24 ]

  

Скачать .torrent

Размер .torrent файла 11 KB


Размер: 139 MB
Хэш (hash) релиза: e7adcd7543ec76aa140f9689baa5af3cf5e0621e
Подписка на обновления:

Торренты, похожие на Лагерь Лагерь Camp Camp скачать торрент

Форум Название Автор Размер S L Добавлен
Мультсериалы ·· Лагерь Лагерь / Camp Camp / Сезон: 2 / Серии: 1-2 из 12 (Джордан Свиерз, Майлз Луна, Керри Шоукросс / Jordan Cwierz, Miles Luna, Kerry Shawcross) [2017, США, Комедия, приключения, WEBRip 1080p] DVO (NewStation) Galfimbul 356623950340 MB 0 0 1506018863

21:34

21-Сен-17

Еще никто не оставлял запись к записи скачать торрент Лагерь Лагерь Camp Camp . Будь первым!

!Обратная связь