Скачать через торрент Чип и Дейл спешат на помощь Chip n Dale Rescue Rangers Фильм бесплатно в хорошем качестве torrent

Скачивайте на UnionPeer.org фильмы через торрент без регистрации. Новинки кино в хорошем качестве через торрент. На UnionPeer.org можно скачать через торрент фильмы 2014 и 2015 годов. Самые новые фильмы.

Скачать торрент Чип и Дейл спешат на помощь Chip n Dale Rescue Rangers бесплатно через .torrent фильм мультфильм сериал

Если у вас наблюдаются проблемы со скриншотами, переходом по ссылками, скачиванием торрентов - проблемы в блокировщике рекламы AdBlock. #хорошегоДня!


Статистика раздачи
Размер:  4.66 GB   |    Зарегистрирован:  4 месяца 29 дней   |    .torrent скачан:  40 раз   |   
Раздают:  1  
   
Загрузка...
 
Автор Сообщение

Galfimbul

avatar Galfimbul


Чип и Дейл спешат на помощь / Chip 'n' Dale Rescue Rangers

Страна: США
Жанр: мультфильм, комедия, детектив, приключения, семейн
Продолжительность серии: 00:22:00
Год выпуска: 1989-1990
Перевод: Профессиональный (дублированный)
Русские субтитры: нет

Режиссёр: Джон Кимболл, Боб Дзамбони, Алан Заслов
Роли озвучивали: Кори Бёртон, Питер Каллен, Джим Каммингс, Тресс МакНилл, Роб Полсен, Дэнни Гэнс

Описание: Знаменитый мультсериал Уолта Диснея о захватывающих приключениях отважных спасателей - Чипа, Дэйла, Рокфора, Гайки и Вжика, которые всегда готовы отправиться навстречу неожиданным опасностям и невероятным приключениям, лишь бы помочь другим в беде. На их пути встают такие злостные враги, как представитель кошачьей мафии Толстопуз, который ради власти и обогащения применяет самые нестандартные способы вроде найма летучих мышей для обворовывания ветолётов или похищения всей рыбы из океана ; сумасшедший учёный Нимнул, способный сравнять город с землёй с помощью электричества, выработанного из... кошек(!); а также крыса Капоне и многие другие... Но храбрым спасателям любые неприятели по зубам!

Список серий:
1. Вжик, вернись домой
2. Дутые спасатели
3. Мухи - отдельно
4. Туфли и айсберги
5. Загнанных собак меняют

Ссылка на предыдущие и альтернативные раздачи: ...Chip%20%27n%27%20Dale%20Rescue%20Rangers
Качество: WEB-DL 1080p
Формат: MKV
Видео: AVC/H.264, 1440x1080, ~4850 kbps - 6800 kbps
Аудио: AC3, 2 ch, 192 kbps, CBR - Русский
Аудио 2: AC3, 2 ch, 224 kbps, CBR - Английский
Субтитры: Английские
ОбщееПолное имя : C:\Documents and Settings\Admin\Мои документы\Downloads\The Berenstain bears\s1e05 The Spooky Old Mansion.aviФормат : AVIФормат/Информация : Audio Video InterleaveРазмер файла : 159 МбайтПродолжительность : 12 м.Общий поток : 1742 Кбит/секПрограмма кодирования : Lavf56.36.100

ВидеоИдентификатор : 0Формат : xvidИдентификатор кодека : xvidПродолжительность : 12 м.Битрейт : 1601 Кбит/секШирина : 640 пикселейВысота : 480 пикселейСоотношение сторон : 4:3Частота кадров : 29,970 кадров/секБит/(Пиксели*Кадры) : 0.174Размер потока : 146 Мбайт (92%)

АудиоИдентификатор : 1Формат : MPEG AudioВерсия формата : Version 1Профиль формата : Layer 3Режим : Joint stereoРасширение режима : MS StereoИдентификатор кодека : 55Идентификатор кодека/Подсказка : MP3Продолжительность : 12 м.Вид битрейта : ПостоянныйБитрейт : 128 Кбит/секКаналы : 2 каналаЧастота : 44,1 КГцМетод сжатия : С потерямиРазмер потока : 11,7 Мбайт (7%)Выравнивание : Соединение по промежуткамПродолжительность промежутка : 26 мс. (0,78 видеокадр)Время предзагрузки промежутка : 26 мс.Библиотека кодирования : LAME3.99.5


Трекер:  [ 13-Июл-2017 10:54 ]

  

Скачать .torrent

Размер .torrent файла 12 KB


Размер: 4.66 GB
Хэш (hash) релиза: 8a8b5b1f2d54ebd8e23b2c9c853d9d4b3fe1e4de
Подписка на обновления:

Еще никто не оставлял запись к записи скачать торрент Чип и Дейл спешат на помощь Chip n Dale Rescue Rangers . Будь первым!

!Обратная связь