Скачать через торрент Аполло Гонлет Apollo Gauntlet Фильм бесплатно в хорошем качестве torrent

Скачивайте на UnionPeer.org фильмы через торрент без регистрации. Новинки кино в хорошем качестве через торрент. На UnionPeer.org можно скачать через торрент фильмы 2014 и 2015 годов. Самые новые фильмы.

Скачать торрент Аполло Гонлет Apollo Gauntlet бесплатно через .torrent фильм мультфильм сериал

Если у вас наблюдаются проблемы со скриншотами, переходом по ссылками, скачиванием торрентов - проблемы в блокировщике рекламы AdBlock. #хорошегоДня!


Статистика раздачи
Размер:  390 MB   |    Зарегистрирован:  4 месяца 27 дней   |    .torrent скачан:  28 раз   |   
Раздают:  1  
   
Загрузка...
 
Автор Сообщение

Galfimbul

avatar Galfimbul


Аполло Гонлет / Apollo Gauntlet

Страна: США
Жанр: Комедия, приключения
Продолжительность серии: 00:11:15
Год выпуска: 2017
Перевод: Одноголосый закадровый NewStation
Русские субтитры: нет

Режиссёр: Майлс Ланглуа / Myles Langlois
Роли озвучивали: Том Кенни, Майлс Ланглуа, Келси Эбботт / Tom Kenny, Myles Langlois, Kelsy Abbott

Описание: Пол Кэссиди, полицейский с планеты Земля, которого доктор Бэниан отправляет в футуристическое феодальное общество. Теперь известный под именем Аполло Гонлет, бывший полицейский борется со злом и пытается вытащить доктора Бэниана с помощью своей говорящей перчатки и магического костюма.

Список серий:
0.0 Пилот / Pilot
0.1 Начало / Origin

Доп. информация: В сериале присутствует ненормативная лексика.

Семпл: http://sendfile.su/1348741

Качество: HDTV 720p
Формат: MKV
Видео: AVC, 1280x720, 16:9, 23,976 кадров/сек, 1993 Кбит/сек
Аудио #1: [RUS] 48 kHz, MP3, 2ch, ~192 kbps
Аудио #2: [ENG] 48 kHz, AC-3, 6ch, ~448 kbps
Субтитры: отсутствуют
ОбщееУникальный идентификатор : 188729239127474481564968800154095471644 (0x8DFBEDE6B7632E12871A1E4E78244C1C)Полное имя : D:\Apollo.Gauntlet.S01.HDTV.720p.NewStation\Apollo.Gauntlet.S01E01.HDTV.720p.NewStation.mkvФормат : MatroskaВерсия формата : Version 4 / Version 2Размер файла : 211 МбайтПродолжительность : 11 м. 10 с.Общий поток : 2635 Кбит/секДата кодирования : UTC 2017-07-15 12:47:35Программа кодирования : mkvmerge v12.0.0 ('Trust / Lust') 32bitБиблиотека кодирования : libebml v1.3.4 + libmatroska v1.4.5

ВидеоИдентификатор : 1Формат : AVCФормат/Информация : Advanced Video CodecПрофиль формата : High@L4.1Параметр CABAC формата : ДаПараметр RefFrames формата : 8 кадровИдентификатор кодека : V_MPEG4/ISO/AVCПродолжительность : 11 м. 10 с.Битрейт : 1993 Кбит/секШирина : 1280 пикселейВысота : 720 пикселейСоотношение сторон : 16:9Режим частоты кадров : ПостоянныйЧастота кадров : 23,976 (24000/1001) кадра/секЦветовое пространство : YUVСубдискретизация насыщенности : 4:2:0Битовая глубина : 8 битТип развёртки : ПрогрессивнаяБит/(Пиксели*Кадры) : 0.090Размер потока : 159 Мбайт (76%)Библиотека кодирования : x264 core 150 r2833 df79067Настройки программы : cabac=1 / ref=8 / deblock=1:0:0 / analyse=0x3:0x133 / me=umh / subme=9 / psy=1 / psy_rd=1.00:0.00 / mixed_ref=1 / me_range=16 / chroma_me=1 / trellis=2 / 8x8dct=1 / cqm=0 / deadzone=21,11 / fast_pskip=1 / chroma_qp_offset=-2 / threads=18 / lookahead_threads=1 / sliced_threads=0 / nr=0 / decimate=1 / interlaced=0 / bluray_compat=0 / constrained_intra=0 / bframes=3 / b_pyramid=2 / b_adapt=2 / b_bias=0 / direct=3 / weightb=1 / open_gop=0 / weightp=2 / keyint=240 / keyint_min=24 / scenecut=40 / intra_refresh=0 / rc_lookahead=60 / rc=crf / mbtree=1 / crf=18.0 / qcomp=0.60 / qpmin=0 / qpmax=69 / qpstep=4 / ip_ratio=1.40 / aq=1:1.00Default : ДаForced : НетЦветовой диапазон : LimitedКоэффициенты матрицы : BT.709

Аудио #1Идентификатор : 2Формат : MPEG AudioВерсия формата : Version 1Профиль формата : Layer 3Идентификатор кодека : A_MPEG/L3Идентификатор кодека/Подсказка : MP3Продолжительность : 11 м. 10 с.Вид битрейта : ПостоянныйБитрейт : 192 Кбит/секКаналы : 2 каналаЧастота : 48,0 КГцЧастота кадров : 41,667 кадра/сек (1152 SPF)Метод сжатия : С потерямиРазмер потока : 15,3 Мбайт (7%)Заголовок : Rus NewStationDefault : ДаForced : Нет

Аудио #2Идентификатор : 3Формат : AC-3Формат/Информация : Audio Coding 3Параметр Endianness формата : BigИдентификатор кодека : A_AC3Продолжительность : 11 м. 10 с.Вид битрейта : ПостоянныйБитрейт : 448 Кбит/секКаналы : 6 каналовРасположение каналов : Front: L C R, Side: L R, LFEЧастота : 48,0 КГцЧастота кадров : 31,250 кадров/сек (1536 SPF)Битовая глубина : 16 битМетод сжатия : С потерямиЗадержка видео : 21 мс.Размер потока : 35,8 Мбайт (17%)Заголовок : OriginalServiceKind/String : Complete MainDefault : НетForced : Нет
Внимание! Раздача ведётся путём добавления новых серий; при каждом добавлении создаётся новый торрент. Чтобы начать докачку новой серии, пользователям необходимо сделать следующее:
(1) остановить скачивание,
(2) удалить старый торрент у себя из клиента (старые серии удалять не надо),
(3) скачать новый торрент и запустить его у себя в клиенте вместо старого, при этом указать клиенту путь в старую папку куда и должно происходить скачивание новых серий.

Ваш клиент при этом должен произвести хеширование (проверку) старой папки (если не производит сам - помогите ему сделать это), и будет докачивать только те серии которых у вас ещё нет. Старые серии при этом не удаляются, а продолжают раздаваться!

Eсли вы уже удалили старые серии, то предотвратить повторную закачку старых серий можно, отжав галочку в соответствующих местах при запуске нового торрента. По возможности, желательно не удалять старые серии как можно дольше чтобы релизёр не столько продолжал раздавать старые серии, а смог сконцентрироваться на новых.


Трекер:  [ 15-Июл-2017 17:54 ]

  

Скачать .torrent

Размер .torrent файла 16 KB


Размер: 390 MB
Хэш (hash) релиза: 256067b136ce498156840ce178b858c240f2b492
Подписка на обновления:

Еще никто не оставлял запись к записи скачать торрент Аполло Гонлет Apollo Gauntlet . Будь первым!

!Обратная связь