Скачать через торрент Токийские вороны Tokyo Ravens бесплатно Аниме Все серии на русском torrent

Если у вас наблюдаются проблемы со скриншотами, переходом по ссылками, скачиванием торрентов - проблемы в блокировщике рекламы AdBlock. #хорошегоДня!


Статистика раздачи
Размер:  156.07 GB   |    Зарегистрирован:  4 месяца 28 дней   |    .torrent скачан:  25 раз   |   
Раздают:  1  
   
Загрузка...
 
Автор Сообщение

Galfimbul

avatar Galfimbul


Токийские вороны / Tokyo Ravens

Год выпуска: 2013
Страна: Япония
Жанр: комедия, мистика
Тип: TV
Продолжительность: 24 эп. по 24 мин.
Озвучка:

Двухголосая (муж/жен) от Nyasheek & NesTea (SHIZA)

Русские субтитры: есть (отдельным файлом, формат .ass)
Перевод:

Harushechka, KeeperRus, Nika_Elrik [YakuSub Studio]

Хардсаб: НетРежиссер: Канасаки Такаоми
Студия: 8bit

Описание: Маги-оммёдзи стоят на страже Японии от потустороннего зла. Законы «инь-янь» изучают в школе, а Двенадцать Небесных Генералов, сильнейшие маги современности, являются героями нации. Среди элиты всегда были представители клана Цутимикадо, происходящего от самого Абэ-но-Сэймэя. Наследник старшей ветви клана традиционно готовился к верховной власти, а наследник побочной ветви становился его сикигами – духовным воином-защитником. Именно это еще в нежном возрасте обещали друг другу наследники последнего поколения, но если юную Нацумэ с малых лет прочили в гении, то Харутора не мог даже видеть духов. Поняв, что таланта нет, парень бросил занятия магией и уехал, расстроив влюбленную кузину.

Главный герой искренне надеялся, что навсегда покинул мир чародейства, но не тут-то было! Прежде всего, на него, пускай по ошибке, напала Судзука Дайрэндзи, самая молодая из Двенадцати Генералов. Отступница охотилась за неким запретным ритуалом клана и приняла Хару за его сестру. А потом Цутимикадо и сам понял, что мир вокруг не таков, каким кажется, причем большинству магов на долг и родину наплевать, они преследуют личные цели, да и собственная семья не без греха. В миг просветления чувства к умной, честной и самоотверженной Нацумэ вспыхнули с новой силой – и парень исполнил детское обещание. А что, помимо магических битв, будет потом, вы и сами догадаетесь!
© Hollow, World Art

Качество: Blu-Ray Remux
Формат: MKV
Видео кодек: AVC
Аудио кодек: FLAC
Видео: 1920x1080 (16:9) 23,976 fps ~32,9 Mbps 8bit
Аудио:
Jap FLAC, 48000Hz, ~1428 Kbps, 2ch
RUS (ext) AC3, 48000Hz, ~192 Kbps, 2ch

Озвучка и субтитры взяты из этой раздачи.
Чаптеры присутствуют.
01. Клан шаманов-Обещание
02. Клан шаманов-Признание
03. Клан шаманов-Взывая к мертвым
04. Гнездо ворона-Школа
05. Будни в гнезде-Каникулы
06. Дни в гнезде-Выходной
07. Танец Химеры-Людоед
08. Танец Химеры-Полу-демон
09. Танец Химеры-Очищение
10. Возвращение Девы-Одарённая
11. Возвращение Девы-Тигр
12. Возвращение Девы-Любовь
13. Нападение Чёрного Шамана-Жрец
14. Нападение Черного Шамана-Один на один
15. Появление мрака-Случайная встреча
16. Появление мрака-Божественный веер
17. Появление мрака-Шейвер
18. Over-cry-Нападение
19. Over-cry-Принцесса
20. Over-cry.Фейерверки
21. Под темным небом.Темная ночь
22. Под темным небом. Защитник
23. Под темным небом.Оммёдзи
24. Под темным небом.Призыв мертвого
Общее
Уникальный идентификатор : 175352842029322186609553467474068281683 (0x83EBBA9B242905D48BAAEAD279B69953)
Полное имя : Z:\Anime Release - working\Tokyo Ravens\[anti-raws]Tokyo Ravens ep.01[BDRemux].mkv
Формат : Matroska
Версия формата : Version 4 / Version 2
Размер файла : 5,81 Гбайт
Продолжительность : 23 м. 43 с.
Режим общего битрейта : Переменный
Общий поток : 35,1 Мбит/сек
Дата кодирования : UTC 2017-07-15 15:41:25
Программа кодирования : mkvmerge v12.0.0 ('Trust / Lust') 64bit
Библиотека кодирования : libebml v1.3.4 + libmatroska v1.4.5

Видео
Идентификатор : 2
Формат : AVC
Формат/Информация : Advanced Video Codec
Профиль формата : High@L4.1
Параметр CABAC формата : Да
Параметр ReFrames формата : 4 кадра
Идентификатор кодека : V_MPEG4/ISO/AVC
Продолжительность : 23 м. 43 с.
Вид битрейта : Переменный
Битрейт : 33,6 Мбит/сек
Максимальный битрейт : 39,0 Мбит/сек
Ширина : 1920 пикселей
Высота : 1080 пикселей
Соотношение сторон : 16:9
Режим частоты кадров : Постоянный
Частота кадров : 23,976 (24000/1001) кадра/сек
Цветовое пространство : YUV
Субдискретизация насыщенности : 4:2:0
Битовая глубина : 8 бит
Тип развёртки : Прогрессивная
Бит/(Пиксели*Кадры) : 0.677
Размер потока : 5,58 Гбайт (96%)
Default : Нет
Forced : Нет

Аудио
Идентификатор : 1
Формат : FLAC
Формат/Информация : Free Lossless Audio Codec
Идентификатор кодека : A_FLAC
Продолжительность : 23 м. 43 с.
Вид битрейта : Переменный
Битрейт : 1428 Кбит/сек
Каналы : 2 канала
Расположение каналов : Front: L R
Частота : 48,0 КГц
Частота кадров : 11,719 кадров/сек (4096 spf)
Битовая глубина : 24 бит
Размер потока : 242 Мбайт (4%)
Библиотека кодирования : libFLAC 1.2.1 (UTC 2007-09-17)
Язык : Japanese
Default : Да
Forced : Нет

Меню
00:00:00.000 : en:00:00:00.000
00:01:08.986 : en:00:01:08.986
00:02:39.034 : en:00:02:39.034
00:10:07.023 : en:00:10:07.023
00:22:01.028 : en:00:22:01.028
00:23:31.035 : en:00:23:31.035
...4566055
...4678381
--HDTVRip

...4796466
...4649361
--BDRip

Эта раздача - BDRemux


Трекер:  [ 15-Июл-2017 22:30 ]

  

Скачать .torrent

Размер .torrent файла 214 KB


Размер: 156.07 GB
Хэш (hash) релиза: e29f4fcfc8053adce5f625acb69bd33067ead323
Подписка на обновления:

Еще никто не оставлял запись к записи скачать торрент Токийские вороны Tokyo Ravens . Будь первым!

!Обратная связь