Скачать через торрент Ясон и Герои Олимпа Jason and the Heroes of Mount Olympus Фильм бесплатно в хорошем качестве torrent

Скачивайте на UnionPeer.org фильмы через торрент без регистрации. Новинки кино в хорошем качестве через торрент. На UnionPeer.org можно скачать через торрент фильмы 2014 и 2015 годов. Самые новые фильмы.

Скачать торрент Ясон и Герои Олимпа Jason and the Heroes of Mount Olympus бесплатно через .torrent фильм мультфильм сериал

Если у вас наблюдаются проблемы со скриншотами, переходом по ссылками, скачиванием торрентов - проблемы в блокировщике рекламы AdBlock. #хорошегоДня!


Статистика раздачи
Размер:  6.34 GB   |    Зарегистрирован:  5 месяцев 2 дня   |    .torrent скачан:  44 раза   |   
Раздают:  1  
   
Загрузка...
 
Автор Сообщение

Galfimbul

avatar Galfimbul


Ясон и Герои Олимпа
Jason and the Heroes of Mount Olympus
Все 26 серий
Год выпуска: 2006 (2002)
Страна: Франция
Режиссер: Флоренс Сандис (Florence Sandis)
Жанр: Детский, Семейный, Анимационный, Мультсериал
Продолжительность: 00:23:00 х 26 серий
Перевод: Профессиональный, дублированный (СТС)
Качество: SATRip by alexicus
Формат: AVI
Видео кодек: XviD
Аудио кодек: MP3
Видео: 640x480 (1.33:1), ~1500 kbps avg, 25 fps, 0.19 bit/pixel
Аудио: MP3, 48 kHz, 2 ch, 160.00 kbps avg

Описание:
На горе Олимп — сенсация! Вот уже почти год в этом обетованном месте, среди богов, живёт простой смертный — Ясон. Согласно пророчеству, этому мальчику суждено стать великим героем, именно поэтому мудрый бог Юпитер подарил Ясону знаменитый пояс Ориона, делающий воина непобедимым. Три парки, не покладая рук, усердно ткут ковёр судьбы Ясона. Его будущее в их руках, и пророчество уже начинает сбываться.

Через Юпитера Ясон узнаёт обо всех происшествиях за пределами Олимпа: Греции угрожает война с Троей, с одного из островов похищен магический изумруд, на мирных жителей наводит ужас морское чудовище, — в подлунном мире неспокойно! И, хотя Юпитер отговаривает Ясона от вмешательства в дела смертных, Ясон не может стоять в стороне, наблюдая чужое горе, и вместе со своими друзьями, Венерой и Меркурием, спешит на помощь людям, совершая новые и новые подвиги.
Ясону предстоят сражения с мифическими чудовищами и злодеями. Его ждут поединки с сиренами, медузой Горгоной, подземным царём и его полчищами, с драконом, циклопом и с амазонками, которые иногда бывают очень плохими. Только пройдя все испытания, Ясон докажет своему учителю Геркулесу и Юпитеру, что они не зря возлагали на него большие надежды и доверили ему пояс героя.
01 - Пояс Ориона (Orion's Belt)
02 - Встреча с Медузой (Meeting with Medusa)
03 - Ясон и Гарпии (Jason and the Harpies)
04 - Доброе море (Sea No Evil)
05 - Ясон и Сирены (Jason and the Sirens)
06 - Проклятье острова Амазонок (No Man's Land)
07 - В кузнице Вулкана (Forge of Vulcan)
08 - Опасный клад (Treasure of Trouble)
09 - Последниий Атлант (Last of the Atlanteans)
10 - Сила в Единстве (Unity is Strength)
11 - Вредный Призрак (Changer in the Midst)
12 - Жало Скорпиона (String of the Scorpion)
13 - Заплутавшие в Лабиринте (Lost in the Labyrinth)
14 - Никакой дисциплины (Indiscipline)
15 - Зима на горе Олимп (Horse Play on Mount Olympus)
16 - Переполох в Загробном мире (Danger in a Strange Land)
17 - Бессонница на горе Олимп (Sleepless on Mount Olympus)
18 - Остров Циклопа (The Cyclops)
19 - Смертельная вражда (Fast Feud)
20 - Хохот Сфинкса (Laughter of the Sphinx)
21 - Преданный друг (Close Companion)
22 - Свирель Пана (The Pipes of Pan)
23 - Вызов Калипсо (Calypso's Challenge)
24 - Золотое Руно (The Golden Fleece)
25 - Взгляд Горгоны (Gaze of Gorgons)
26 - Решающая схватка (Day of Destiny)
General
Complete name : .\Ясон и Герои Олимпа - Jason and the Heroes of Mount Olympus 2006 SATRip RUS\01 - Пояс Ориона (Orion's Belt).avi
Format : AVI
Format/Info : Audio Video Interleave
File size : 250 MiB
Duration : 21mn 10s
Overall bit rate : 1 647 Kbps
Movie name : Jason and the Heroes of Mount Olympus (01) Orion's Belt
Genre : Child's
Writing application : VirtualDubMod 1.5.4.1 (build 2178/release) VirtualDubMod build 2178/release
Original source form/Name : Cartoon Serial
Copyright : SATRip RUS by alexicus

Video
ID : 0
Format : MPEG-4 Visual
Format profile : Advanced Simple@L5
Format settings, BVOP : 1
Format settings, QPel : No
Format settings, GMC : No warppoints
Format settings, Matrix : Custom
Codec ID : XVID
Codec ID/Hint : XviD
Duration : 21mn 10s
Bit rate : 1 480 Kbps
Width : 640 pixels
Height : 480 pixels
Display aspect ratio : 4:3
Frame rate : 25.000 fps
Color space : YUV
Chroma subsampling : 4:2:0
Bit depth : 8 bits
Scan type : Progressive
Compression mode : Lossy
Bits/(Pixel*Frame) : 0.193
Stream size : 224 MiB (90%)
Writing library : XviD 1.2.0.dev47 (UTC 2006-11-01)

Audio
ID : 1
Format : MPEG Audio
Format version : Version 1
Format profile : Layer 3
Mode : Joint stereo
Mode extension : MS Stereo
Codec ID : 55
Codec ID/Hint : MP3
Duration : 21mn 10s
Bit rate mode : Constant
Bit rate : 160 Kbps
Channel(s) : 2 channels
Sampling rate : 48.0 KHz
Compression mode : Lossy
Stream size : 24.2 MiB (10%)
Alignment : Aligned on interleaves
Interleave, duration : 80 ms (2.00 video frames)
Interleave, preload duration : 504 ms
Writing library : LAME3.97
Encoding settings : -m j -V 4 -q 2 -lowpass 17.5 -b 160
Language : Undefined


Трекер:  [ 15-Июл-2017 23:24 ]

  

Скачать .torrent

Размер .torrent файла 34 KB


Размер: 6.34 GB
Хэш (hash) релиза: f8bea860666f51d6d2d87b19b069d2d24cf498bb
Подписка на обновления:

Еще никто не оставлял запись к записи скачать торрент Ясон и Герои Олимпа Jason and the Heroes of Mount Olympus . Будь первым!

!Обратная связь