Скачать через торрент Адская девочка бесплатно Аниме Все серии на русском torrent

Если у вас наблюдаются проблемы со скриншотами, переходом по ссылками, скачиванием торрентов - проблемы в блокировщике рекламы AdBlock. #хорошегоДня!


Статистика раздачи
Размер:  470 MB   |    Зарегистрирован:  4 месяца 28 дней   |    .torrent скачан:  30 раз   |   
Раздают:  1  
   
Загрузка...
 
Автор Сообщение

Galfimbul

avatar Galfimbul


Адская девочка: Разговоры в сумерках
Jigoku Shoujo: Yoi no Togi
Hell Girl: Fourth Twilight
地獄少女 宵伽

Страна: Япония
Год выпуска: 2017 г.
Жанр: мистика, ужасы
Тип: TV
Продолжительность: 12 эп. по 24 мин.
Режиссер: Омори Такахиро
Студия: Studio DEENРусские субтитры от Team Shirome
Перевод/Оформление: Rinon NinqueonОписание: Спустя девять лет после показа третьего сезона, Адская девочка вновь решила нанести визит в мир смертных! На просторах интернета есть один сайт под названием "Адская переписка”. Доступ к этому мистическому сайту открывается только в полночь. Ходят слухи, что если вписать на сайте имя человека, которого ты всем сердцем ненавидишь, то к нему явится Адская девочка и заберёт его душу с собой в ад. Эта легенда быстро распространилась среди молодёжи, но лишь немногие в курсе, что это не сказки, а правда.

У Адской девочки есть имя, её зовут Ай Энма. И если вы действительно кого-то ненавидите, то она, так и быть, поможет вам отомстить вашему обидчику. Но только не думайте, что Ай Энма сделает это бесплатно. Нет, ей не нужны деньги, да и ответная услуга тоже ни к чему. Решаясь на месть, ты заключаешь с ней контракт. И суть его в том, что в ад отправится не только ненавистный вам человек, но и вы. Тем не менее, даже при таких условиях, у неё имеются клиенты. Новый сезон покажет нам воспоминания Ай, а также продолжение её истории.Информационные ссылки: AniDB | MyAnimeList | World ArtКачество: HDTVRip
Тип релиза: Без хардсаба
Формат видео: MP4
Наличие линковки: Нет
Релиз/Автор рипа: Leopard-Raws
Видео: x264, 8 bit, 1280x720, ~2541 Kbps, 23.976 fps
Аудио (int): AAC, 48000 Hz, ~192 Kbps, 2 ch
Субтитры (ext): Rus, ASS
<div class="sp-wrap">
<div class="sp-head folded">MediaInfo</div>
<div class="sp-body">

Формат : MPEG-4Профиль формата : Base MediaИдентификатор кодека : isom (isom/avc1/iso6)Размер файла : 470 МбайтПродолжительность : 23 м. 59 с.Режим общего битрейта : ПеременныйОбщий поток : 2737 Кбит/секДата кодирования : UTC 2017-07-14 20:22:50Дата пометки : UTC 2017-07-14 20:22:50

ВидеоИдентификатор : 1Формат : AVCФормат/Информация : Advanced Video CodecПрофиль формата : High@L4.1Параметр CABAC формата : ДаПараметр ReFrames формата : 4 кадраИдентификатор кодека : avc1Идентификатор кодека/Информация : Advanced Video CodingПродолжительность : 23 м. 59 с.Битрейт : 2541 Кбит/секМаксимальный битрейт : 15,6 Мбит/секШирина : 1280 пикселейВысота : 720 пикселейСоотношение сторон : 16:9Режим частоты кадров : ПостоянныйЧастота кадров : 23,976 (24000/1001) кадра/секЦветовое пространство : YUVСубдискретизация насыщенности : 4:2:0Битовая глубина : 8 битТип развёртки : ПрогрессивнаяБит/(Пиксели*Кадры) : 0.115Размер потока : 436 Мбайт (93%)Заголовок : 264:fps=23.976@GPAC0.5.2-DEV-rev376-g5eeb74d-masterБиблиотека кодирования : x264 core 129 r2245+729M 1a52e03Настройки программы : cabac=1 / ref=4 / deblock=1:1:-1 / analyse=0x3:0x113 / me=umh / subme=9 / psy=1 / fade_compensate=0.00 / psy_rd=1.00:0.00 / mixed_ref=1 / me_range=24 / chroma_me=1 / trellis=2 / 8x8dct=1 / cqm=0 / deadzone=21,11 / fast_pskip=1 / chroma_qp_offset=-2 / threads=8 / lookahead_threads=1 / sliced_threads=0 / nr=0 / decimate=1 / interlaced=0 / bluray_compat=0 / constrained_intra=0 / fgo=0 / bframes=9 / b_pyramid=2 / b_adapt=2 / b_bias=0 / direct=1 / weightb=1 / open_gop=0 / weightp=2 / keyint=240 / keyint_min=24 / scenecut=40 / intra_refresh=0 / rc=crf / mbtree=0 / crf=17.5 / qcomp=0.72 / qpmin=0 / qpmax=69 / qpstep=4 / ip_ratio=1.40 / pb_ratio=1.30 / aq=1:0.85Дата кодирования : UTC 2017-07-14 20:22:50Дата пометки : UTC 2017-07-14 20:22:57Цветовой диапазон : LimitedОсновные цвета : BT.709Характеристики трансфера : BT.709Коэффициенты матрицы : BT.709

АудиоИдентификатор : 2Формат : AACФормат/Информация : Advanced Audio CodecПрофиль формата : LCИдентификатор кодека : 40Продолжительность : 23 м. 59 с.Вид битрейта : ПеременныйБитрейт : 192 Кбит/секМаксимальный битрейт : 236 Кбит/секКаналы : 2 каналаРасположение каналов : Front: L RЧастота : 48,0 КГцЧастота кадров : 46,875 кадров/сек (1024 spf)Метод сжатия : С потерямиРазмер потока : 33,0 Мбайт (7%)Язык : JapaneseДата кодирования : UTC 2017-07-14 16:28:48Дата пометки : UTC 2017-07-14 20:22:57
</div>
</div>
01. Can`t Be Seen, Can`t Be Heard


Трекер:  [ 16-Июл-2017 03:01 ]

  

Скачать .torrent

Размер .torrent файла 2 KB


Размер: 470 MB
Хэш (hash) релиза: 6b18172ffb70f20652eb5f64151bd197151e9d55
Подписка на обновления:

Еще никто не оставлял запись к записи скачать торрент Адская девочка . Будь первым!

!Обратная связь