Скачать через торрент музыку Ennio Morricone бесплатно без регистрации torrent

Если у вас наблюдаются проблемы со скриншотами, переходом по ссылками, скачиванием торрентов - проблемы в блокировщике рекламы AdBlock. #хорошегоДня!


Статистика раздачи
Размер:  1.61 GB   |    Зарегистрирован:  4 месяца 26 дней   |    .torrent скачан:  36 раз   |   
Раздают:  1   Качают:  1  
   
Загрузка...
 
Автор Сообщение

Galfimbul

avatar Galfimbul


Ennio Morricone - The Best World Instrumental Hits

Жанр: Score, Soundtrack, Instrumental, Easy Listening
Год выпуска диска: 2009
Страна-производитель диска: Russia
Издатель (лейбл): Higher Octave Music
Номер по каталогу: 23876-1/2, 46071478965
Аудиокодек: FLAC (*.flac)
Тип рипа: image+.cue
Битрейт аудио: lossless
Продолжительность: 02:39:19
Источник: Boris1
Наличие сканов в содержимом раздачи: да
01. A Fistful of Dollars Main Title ("A Fistful of Dollars") (2:58)
02. Theme ("A Fistful of Dollars") (1:49)
03. A Pistol for Ringo ("A Pistol for Ringo") (2:19)
04. Sixty Seconds To What ("For a Few Dollars More") (3:06)
05. For a Few Dollars More ("For a Few Dollars More") (2:50)
06. Navajo Joe Main Title ("Navajo Joe") (2:50)
07. The Good, The Bad and The Ugly Main Title ("The Good, The Bad and The Ugly") (2:41)
08. The Ecstasy of Gold ("The Good, The Bad and The Ugly") (3:24)
09. Algiers November1, 1954 ("The Batle of Algiers") (2:25)
10. Ad Ogni Costo ("Grand Slam") (2:54)
11. The Garden of Delights ("The Garden of Delights") (3:05)
12. The Big Gundown ("The Big Gundown") (2:22)
13. Love Theme ("Guns For San Sebastian") (2:53)
14. Man With a Harmonica ("Once Upon a Time in the West") (3:31)
15. Farewell to Cheyenne ("Once Upon a Time in the West") (2:39)
16. Once Upon a Time in the West ("Once Upon a Time in the West") (3:45)
17. Investigation of a Citizen above Suspicion Main Title ("Investigation of a Citizen above Suspicion") (3:29)
18. Citta Violenta ("The Family") (2:25)
19. Duck, You Sucker Main Title ("Duck, You Sucker") (3:38 )
20. Without Apparent Motive ("Without Apparent Motive") (4:22)
21. My Name Is Nobody ("My Name Is Nobody") (3:11)
22. Moses Theme Main Title ("Moses the Lawgiver") (4:09)
23. Gli Scatenati ("The Cat") (3:42)
24. Il Gato ("The Cat") (3:08 )
25. Robodog ("The Humanoid") (1:39)
26. Cavallino A Cavallo ("Dedicated to the Aegean Sea") (4:20)
<div class="sp-wrap">
<div class="sp-head folded">Лог создания рипа</div>
<div class="sp-body">

Exact Audio Copy V1.0 beta 1 from 15. November 2010

EAC extraction logfile from 2. June 2012, 22:14

Ennio Morricone / Ennio Morricone - Greatest Hits CD1

Used drive : SAMSUNG DVD-ROM SD-616E Adapter: 3 ID: 0

Read mode : SecureUtilize accurate stream : YesDefeat audio cache : YesMake use of C2 pointers : No

Read offset correction : 12Overread into Lead-In and Lead-Out : NoFill up missing offset samples with silence : YesDelete leading and trailing silent blocks : NoNull samples used in CRC calculations : YesUsed interface : Native Win32 interface for Win NT & 2000

Used output format : Internal WAV RoutinesSample format : 44.100 Hz; 16 Bit; Stereo

TOC of the extracted CD

Track | Start | Length | Start sector | End sector --------------------------------------------------------- 1 | 0:00.00 | 2:58.38 | 0 | 13387 2 | 2:58.38 | 1:49.10 | 13388 | 21572 3 | 4:47.48 | 2:19.62 | 21573 | 32059 4 | 7:07.35 | 3:06.03 | 32060 | 46012 5 | 10:13.38 | 2:50.52 | 46013 | 58814 6 | 13:04.15 | 2:50.25 | 58815 | 71589 7 | 15:54.40 | 2:41.70 | 71590 | 83734 8 | 18:36.35 | 3:24.53 | 83735 | 99087 9 | 22:01.13 | 2:25.25 | 99088 | 109987 10 | 24:26.38 | 2:54.33 | 109988 | 123070 11 | 27:20.71 | 3:05.10 | 123071 | 136955 12 | 30:26.06 | 2:22.62 | 136956 | 147667 13 | 32:48.68 | 2:53.68 | 147668 | 160710 14 | 35:42.61 | 3:31.07 | 160711 | 176542 15 | 39:13.68 | 2:39.70 | 176543 | 188537 16 | 41:53.63 | 3:45.08 | 188538 | 205420 17 | 45:38.71 | 3:29.00 | 205421 | 221095 18 | 49:07.71 | 2:25.65 | 221096 | 232035 19 | 51:33.61 | 3:38.18 | 232036 | 248403 20 | 55:12.04 | 4:22.72 | 248404 | 268125 21 | 59:35.01 | 3:11.35 | 268126 | 282485 22 | 62:46.36 | 4:09.55 | 282486 | 301215 23 | 66:56.16 | 3:42.22 | 301216 | 317887 24 | 70:38.38 | 3:08.73 | 317888 | 332060 25 | 73:47.36 | 1:39.15 | 332061 | 339500 26 | 75:26.51 | 4:20.15 | 339501 | 359015

Range status and errors

Selected range

Filename C:\Documents and Settings\Borya\Desktop\ennimorri\cd1\Ennio Morricone - Ennio Morricone - Greatest Hits CD1.wav

Peak level 97.7 % Extraction speed 0.1 X Range quality 100.0 % Copy CRC A776F8B5 Copy OK

No errors occurred

AccurateRip summary

Track 1 not present in databaseTrack 2 not present in databaseTrack 3 not present in databaseTrack 4 not present in databaseTrack 5 not present in databaseTrack 6 not present in databaseTrack 7 not present in databaseTrack 8 not present in databaseTrack 9 not present in databaseTrack 10 not present in databaseTrack 11 not present in databaseTrack 12 not present in databaseTrack 13 not present in databaseTrack 14 not present in databaseTrack 15 not present in databaseTrack 16 not present in databaseTrack 17 not present in databaseTrack 18 not present in databaseTrack 19 not present in databaseTrack 20 not present in databaseTrack 21 not present in databaseTrack 22 not present in databaseTrack 23 not present in databaseTrack 24 not present in databaseTrack 25 not present in databaseTrack 26 not present in database

None of the tracks are present in the AccurateRip database

End of status report
REM GENRE InstrumentalREM DATE 2009REM DISCID 8E12B21AREM COMMENT "ExactAudioCopy v1.0b1"PERFORMER "Ennio Morricone"TITLE "Ennio Morricone - Greatest Hits CD1"FILE "Ennio Morricone - Ennio Morricone - Greatest Hits CD1.wav" WAVE TRACK 01 AUDIO TITLE "A Fistful of Dollars Main Title ( 'A Fistful of Dollars')" PERFORMER "Ennio Morricone" FLAGS DCP INDEX 01 00:00:00 TRACK 02 AUDIO TITLE "Theme ( 'A Fistful of Dollars')" PERFORMER "Ennio Morricone" FLAGS DCP INDEX 01 02:58:38 TRACK 03 AUDIO TITLE "A Pistol for Ringo ('A Pistol for Ringo')" PERFORMER "Ennio Morricone" FLAGS DCP INDEX 00 04:47:30 INDEX 01 04:47:48 TRACK 04 AUDIO TITLE "Sixty Seconds To What ('For a Few Dollars More')" PERFORMER "Ennio Morricone" FLAGS DCP INDEX 01 07:07:35 TRACK 05 AUDIO TITLE "For a Few Dollars More ('For a Few Dollars More')" PERFORMER "Ennio Morricone" FLAGS DCP INDEX 01 10:13:38 TRACK 06 AUDIO TITLE "Navajo Joe Main Title ( 'Navajo Joe')" PERFORMER "Ennio Morricone" FLAGS DCP INDEX 01 13:04:15 TRACK 07 AUDIO TITLE "The Good, The Bad and The Ugly Main Title ( 'The Good, The ..." PERFORMER "Ennio Morricone" FLAGS DCP INDEX 01 15:54:40 TRACK 08 AUDIO TITLE "The Ecstacy of Gold ('The Good, The Bad and The Ugly')" PERFORMER "Ennio Morricone" FLAGS DCP INDEX 01 18:36:35 TRACK 09 AUDIO TITLE "Algiers November 1, 1954 ('The Battle of Algiers'" PERFORMER "Ennio Morricone" FLAGS DCP INDEX 01 22:01:13 TRACK 10 AUDIO TITLE "Ad Ogni Costo ('Grand Slam'" PERFORMER "Ennio Morricone" FLAGS DCP INDEX 01 24:26:38 TRACK 11 AUDIO TITLE "The Garden of Delights ('The Garden of Delights')" PERFORMER "Ennio Morricone" FLAGS DCP INDEX 01 27:20:71 TRACK 12 AUDIO TITLE "The Big Gundown ('The Big Gundown')" PERFORMER "Ennio Morricone" FLAGS DCP INDEX 01 30:26:06 TRACK 13 AUDIO TITLE "Love Theme ( 'Guns For San Sebastian')" PERFORMER "Ennio Morricone" FLAGS DCP INDEX 01 32:48:68 TRACK 14 AUDIO TITLE "Man With a Harmonica ('Once Upon a Time in the West')" PERFORMER "Ennio Morricone" FLAGS DCP INDEX 01 35:42:61 TRACK 15 AUDIO TITLE "Farewell to Cheyenne ('Once Upon a Time in the West')" PERFORMER "Ennio Morricone" FLAGS DCP INDEX 01 39:13:68 TRACK 16 AUDIO TITLE "Once upon a Time in the West ('Once Upon a Time in the West')" PERFORMER "Ennio Morricone" FLAGS DCP INDEX 01 41:53:63 TRACK 17 AUDIO TITLE "Investigation of a Citizen above Suspicion Main Title ('In..." PERFORMER "Ennio Morricone" FLAGS DCP INDEX 00 45:38:58 INDEX 01 45:38:71 TRACK 18 AUDIO TITLE "Citta Violenta ('The Family')" PERFORMER "Ennio Morricone" FLAGS DCP INDEX 01 49:07:71 TRACK 19 AUDIO TITLE "Duck, You Sucker Main Title (from 'Duck You Sucker')" PERFORMER "Ennio Morricone" FLAGS DCP INDEX 01 51:33:61 TRACK 20 AUDIO TITLE "Without Apparent Motive ('Without Apparent Motive')" PERFORMER "Ennio Morricone" FLAGS DCP INDEX 00 55:12:03 INDEX 01 55:12:04 TRACK 21 AUDIO TITLE "My Name Is Nobody ( 'My Name Is Nobody')" PERFORMER "Ennio Morricone" FLAGS DCP INDEX 01 59:35:01 TRACK 22 AUDIO TITLE "Moses Theme (Main Title) (from 'Moses The Lawgiver')" PERFORMER "Ennio Morricone" FLAGS DCP INDEX 01 62:46:36 TRACK 23 AUDIO TITLE "Gli Scatenati (from 'The Cat')" PERFORMER "Ennio Morricone" FLAGS DCP INDEX 01 66:56:16 TRACK 24 AUDIO TITLE "Il Gatto (from 'The Cat')" PERFORMER "Ennio Morricone" FLAGS DCP INDEX 00 70:38:32 INDEX 01 70:38:38 TRACK 25 AUDIO TITLE "Robodog (from 'The Humanoid')" PERFORMER "Ennio Morricone" FLAGS DCP INDEX 01 73:47:36 TRACK 26 AUDIO TITLE "Cavallina A Cavallo (from 'Dedicated To The Aegean Sea')" PERFORMER "Ennio Morricone" FLAGS DCP INDEX 01 75:26:51
foobar2000 1.1.10 / Dynamic Range Meter 1.1.1log date: 2017-07-17 21:37:38

--------------------------------------------------------------------------------Analyzed: Ennio Morricone / Ennio Morricone - Greatest Hits CD1--------------------------------------------------------------------------------

DR Peak RMS Duration Track--------------------------------------------------------------------------------DR9 -3.63 dB -16.73 dB 2:59 ?-A Fistful of Dollars Main Title ( 'A Fistful of Dollars')DR9 -4.24 dB -15.85 dB 1:49 ?-Theme ( 'A Fistful of Dollars')DR11 -0.63 dB -13.47 dB 2:20 ?-A Pistol for Ringo ('A Pistol for Ringo')DR10 -0.44 dB -12.87 dB 3:06 ?-Sixty Seconds To What ('For a Few Dollars More')DR10 -0.44 dB -13.02 dB 2:51 ?-For a Few Dollars More ('For a Few Dollars More')DR8 -0.44 dB -9.40 dB 2:50 ?-Navajo Joe Main Title ( 'Navajo Joe')DR11 -0.20 dB -15.10 dB 2:42 ?-The Good, The Bad and The Ugly Main Title ( 'The Good, The ...DR10 -0.20 dB -13.99 dB 3:25 ?-The Ecstacy of Gold ('The Good, The Bad and The Ugly')DR11 -0.54 dB -13.80 dB 2:25 ?-Algiers November 1, 1954 ('The Battle of Algiers'DR10 -0.44 dB -13.21 dB 2:54 ?-Ad Ogni Costo ('Grand Slam'DR9 -0.44 dB -10.65 dB 3:05 ?-The Garden of Delights ('The Garden of Delights')DR9 -1.47 dB -11.63 dB 2:23 ?-The Big Gundown ('The Big Gundown')DR11 -3.10 dB -19.32 dB 2:54 ?-Love Theme ( 'Guns For San Sebastian')DR10 -0.88 dB -16.47 dB 3:31 ?-Man With a Harmonica ('Once Upon a Time in the West')DR14 -2.41 dB -18.83 dB 2:40 ?-Farewell to Cheyenne ('Once Upon a Time in the West')DR10 -1.28 dB -15.90 dB 3:45 ?-Once upon a Time in the West ('Once Upon a Time in the West')DR12 -0.44 dB -16.95 dB 3:29 ?-Investigation of a Citizen above Suspicion Main Title ('In...DR10 -0.78 dB -12.48 dB 2:26 ?-Citta Violenta ('The Family')DR9 -1.38 dB -14.47 dB 3:38 ?-Duck, You Sucker Main Title (from 'Duck You Sucker')DR12 -0.51 dB -17.66 dB 4:23 ?-Without Apparent Motive ('Without Apparent Motive')DR12 -0.99 dB -14.88 dB 3:11 ?-My Name Is Nobody ( 'My Name Is Nobody')DR9 -1.58 dB -14.80 dB 4:10 ?-Moses Theme (Main Title) (from 'Moses The Lawgiver')DR10 -2.59 dB -13.89 dB 3:42 ?-Gli Scatenati (from 'The Cat')DR12 -0.68 dB -15.55 dB 3:09 ?-Il Gatto (from 'The Cat')DR13 -2.78 dB -20.75 dB 1:39 ?-Robodog (from 'The Humanoid')DR11 -2.34 dB -15.66 dB 4:20 ?-Cavallina A Cavallo (from 'Dedicated To The Aegean Sea')--------------------------------------------------------------------------------

Number of tracks: 26Official DR value: DR10

Samplerate: 44100 HzChannels: 2Bits per sample: 16Bitrate: 1411 kbpsCodec: PCM================================================================================
</div>
</div>
01. Chi Mai ("Le Professionnel") (5:05)
02. Cockeye`s Song ("Once Upon a Time in America") (4:22)
03. Le Vent, Le Cri ("Le Professionnel") (5:20)
04. Bye Bye Colonel ("For a Few Dollars More") (2:03)
05. La Tragedia Di Un Uomo Ridicolo ("Tragedy of a Ridiculous Man") (2:15)
06. Orient Express ("Orient Express") (4:12)
07. Once Upon a Time In Revolution ("A Fistful of Dynamite") (4:15)
08. Dimenticare Palermo ("Dimenticare Palermo") (2:55)
09. Mille Ecchi ("La Piovra") (3:21)
10. Ricatto ("La Piovra") (3:02)
11. Strana Bambina ("La Piovra") (3:54)
12. Gabriels Oboe ("The Mission") (2:15)
13. Al Capone ("The Untouchables") (2:55)
14. The Untouchables ("The Untouchables") (3:11)
15. Death Theme ("The Untouchables") (2:30)
16. Silent of Love ("The Great Silence") (2:59)
17. La Califfa ("La Califfa") (2:38)
18. Mercenario ("The Mercenary") (3:15)
19. Tepepa ("Tepepa") (4:43)
20. The Cicilian Clan ("The Cicilian Clan") (4:16)
21. From American Sex Appeal to The First Fellini ("Cinema Paradiso") (3:26)
22. Frantic ("Frantic") (3:43)
23. Act of Faith ("Bugsy") (3:09)
<div class="sp-wrap">
<div class="sp-head folded">Лог создания рипа</div>
<div class="sp-body">

Exact Audio Copy V1.0 beta 1 from 15. November 2010

EAC extraction logfile from 2. June 2012, 22:46

Ennio Morricone / The Best World Instrumental Hits

Used drive : SAMSUNG DVD-ROM SD-616E Adapter: 3 ID: 0

Read mode : SecureUtilize accurate stream : YesDefeat audio cache : YesMake use of C2 pointers : No

Read offset correction : 12Overread into Lead-In and Lead-Out : NoFill up missing offset samples with silence : YesDelete leading and trailing silent blocks : NoNull samples used in CRC calculations : YesUsed interface : Native Win32 interface for Win NT & 2000

Used output format : Internal WAV RoutinesSample format : 44.100 Hz; 16 Bit; Stereo

TOC of the extracted CD

Track | Start | Length | Start sector | End sector --------------------------------------------------------- 1 | 0:00.00 | 5:05.37 | 0 | 22911 2 | 5:05.37 | 4:22.73 | 22912 | 42634 3 | 9:28.35 | 5:20.00 | 42635 | 66634 4 | 14:48.35 | 2:03.25 | 66635 | 75884 5 | 16:51.60 | 2:15.37 | 75885 | 86046 6 | 19:07.22 | 4:12.48 | 86047 | 104994 7 | 23:19.70 | 4:15.68 | 104995 | 124187 8 | 27:35.63 | 2:55.48 | 124188 | 137360 9 | 30:31.36 | 3:21.22 | 137361 | 152457 10 | 33:52.58 | 3:02.17 | 152458 | 166124 11 | 36:55.00 | 3:54.63 | 166125 | 183737 12 | 40:49.63 | 2:15.20 | 183738 | 193882 13 | 43:05.08 | 2:55.33 | 193883 | 207040 14 | 46:00.41 | 3:11.10 | 207041 | 221375 15 | 49:11.51 | 2:30.12 | 221376 | 232637 16 | 51:41.63 | 2:59.25 | 232638 | 246087 17 | 54:41.13 | 2:38.37 | 246088 | 257974 18 | 57:19.50 | 3:15.60 | 257975 | 272659 19 | 60:35.35 | 4:43.07 | 272660 | 293891 20 | 65:18.42 | 4:16.40 | 293892 | 313131 21 | 69:35.07 | 3:26.52 | 313132 | 328633 22 | 73:01.59 | 3:43.50 | 328634 | 345408 23 | 76:45.34 | 3:10.07 | 345409 | 359665

Range status and errors

Selected range

Filename C:\Documents and Settings\Borya\Desktop\ennimorri\cd2\Ennio Morricone - The Best World Instrumental Hits.wav

Peak level 100.0 % Extraction speed 0.1 X Range quality 100.0 % Copy CRC D56DA594 Copy OK

No errors occurred

AccurateRip summary

Track 1 not present in databaseTrack 2 not present in databaseTrack 3 not present in databaseTrack 4 not present in databaseTrack 5 not present in databaseTrack 6 not present in databaseTrack 7 not present in databaseTrack 8 not present in databaseTrack 9 not present in databaseTrack 10 not present in databaseTrack 11 not present in databaseTrack 12 not present in databaseTrack 13 not present in databaseTrack 14 not present in databaseTrack 15 not present in databaseTrack 16 not present in databaseTrack 17 not present in databaseTrack 18 not present in databaseTrack 19 not present in databaseTrack 20 not present in databaseTrack 21 not present in databaseTrack 22 not present in databaseTrack 23 not present in database

None of the tracks are present in the AccurateRip database

End of status report
REM GENRE InstrumentalREM DATE 2009REM DISCID 3B12BB17REM COMMENT "ExactAudioCopy v1.0b1"PERFORMER "Ennio Morricone"TITLE "The Best World Instrumental Hits"FILE "Ennio Morricone - The Best World Instrumental Hits.wav" WAVE TRACK 01 AUDIO TITLE "Chi Mai" PERFORMER "Ennio Morricone" FLAGS DCP INDEX 01 00:00:00 TRACK 02 AUDIO TITLE "Cockeye`s Song" PERFORMER "Ennio Morricone" FLAGS DCP INDEX 01 05:05:37 TRACK 03 AUDIO TITLE "Le Vent, Le Cri" PERFORMER "Ennio Morricone" FLAGS DCP INDEX 01 09:28:35 TRACK 04 AUDIO TITLE "Bye Bye Colonel" PERFORMER "Ennio Morricone" FLAGS DCP INDEX 00 14:48:34 INDEX 01 14:48:35 TRACK 05 AUDIO TITLE "La Tragedia Di Un Uomo Ridicolo" PERFORMER "Ennio Morricone" FLAGS DCP INDEX 00 16:51:59 INDEX 01 16:51:60 TRACK 06 AUDIO TITLE "Orient Express" PERFORMER "Ennio Morricone" FLAGS DCP INDEX 00 19:07:21 INDEX 01 19:07:22 TRACK 07 AUDIO TITLE "Once Upon a Time In Revolution" PERFORMER "Ennio Morricone" FLAGS DCP INDEX 00 23:19:69 INDEX 01 23:19:70 TRACK 08 AUDIO TITLE "Dimenticare Palermo" PERFORMER "Ennio Morricone" FLAGS DCP INDEX 00 27:35:62 INDEX 01 27:35:63 TRACK 09 AUDIO TITLE "Mille Ecchi" PERFORMER "Ennio Morricone" FLAGS DCP INDEX 00 30:31:35 INDEX 01 30:31:36 TRACK 10 AUDIO TITLE "Ricatto" PERFORMER "Ennio Morricone" FLAGS DCP INDEX 00 33:52:57 INDEX 01 33:52:58 TRACK 11 AUDIO TITLE "Strana Bambina" PERFORMER "Ennio Morricone" FLAGS DCP INDEX 00 36:54:74 INDEX 01 36:55:00 TRACK 12 AUDIO TITLE "Gabriels Oboe" PERFORMER "Ennio Morricone" FLAGS DCP INDEX 00 40:49:62 INDEX 01 40:49:63 TRACK 13 AUDIO TITLE "Al Capone" PERFORMER "Ennio Morricone" FLAGS DCP INDEX 00 43:05:07 INDEX 01 43:05:08 TRACK 14 AUDIO TITLE "The Untouchables" PERFORMER "Ennio Morricone" FLAGS DCP INDEX 00 46:00:40 INDEX 01 46:00:41 TRACK 15 AUDIO TITLE "Death Theme" PERFORMER "Ennio Morricone" FLAGS DCP INDEX 00 49:11:50 INDEX 01 49:11:51 TRACK 16 AUDIO TITLE "Silent of Love" PERFORMER "Ennio Morricone" FLAGS DCP INDEX 01 51:41:63 TRACK 17 AUDIO TITLE "La Califfa" PERFORMER "Ennio Morricone" FLAGS DCP INDEX 00 54:41:12 INDEX 01 54:41:13 TRACK 18 AUDIO TITLE "Mercenario" PERFORMER "Ennio Morricone" FLAGS DCP INDEX 00 57:19:49 INDEX 01 57:19:50 TRACK 19 AUDIO TITLE "Tepepa" PERFORMER "Ennio Morricone" FLAGS DCP INDEX 00 60:35:34 INDEX 01 60:35:35 TRACK 20 AUDIO TITLE "The Cicilian Clan" PERFORMER "Ennio Morricone" FLAGS DCP INDEX 00 65:18:41 INDEX 01 65:18:42 TRACK 21 AUDIO TITLE "From American Sex Appeal to The First Fellini" PERFORMER "Ennio Morricone" FLAGS DCP INDEX 00 69:35:06 INDEX 01 69:35:07 TRACK 22 AUDIO TITLE "Frantic" PERFORMER "Ennio Morricone" FLAGS DCP INDEX 00 73:01:39 INDEX 01 73:01:59 TRACK 23 AUDIO TITLE "Act of Faith" PERFORMER "Ennio Morricone" FLAGS DCP INDEX 00 76:44:56 INDEX 01 76:45:34
foobar2000 1.1.10 / Dynamic Range Meter 1.1.1log date: 2017-07-17 21:41:36

--------------------------------------------------------------------------------Analyzed: Ennio Morricone / The Best World Instrumental Hits--------------------------------------------------------------------------------

DR Peak RMS Duration Track--------------------------------------------------------------------------------DR9 0.00 dB -10.98 dB 5:05 ?-Chi MaiDR8 0.00 dB -11.00 dB 4:23 ?-Cockeye`s SongDR8 0.00 dB -10.99 dB 5:20 ?-Le Vent, Le CriDR8 0.00 dB -11.07 dB 2:03 ?-Bye Bye ColonelDR7 0.00 dB -11.07 dB 2:15 ?-La Tragedia Di Un Uomo RidicoloDR8 0.00 dB -11.02 dB 4:13 ?-Orient ExpressDR8 -0.16 dB -11.01 dB 4:16 ?-Once Upon a Time In RevolutionDR8 -0.72 dB -11.01 dB 2:56 ?-Dimenticare PalermoDR8 0.00 dB -11.04 dB 3:21 ?-Mille EcchiDR9 0.00 dB -11.00 dB 3:02 ?-RicattoDR8 0.00 dB -11.02 dB 3:55 ?-Strana BambinaDR8 -1.54 dB -11.06 dB 2:15 ?-Gabriels OboeDR9 0.00 dB -11.02 dB 2:55 ?-Al CaponeDR9 0.00 dB -11.00 dB 3:11 ?-The UntouchablesDR9 0.00 dB -10.97 dB 2:30 ?-Death ThemeDR8 0.00 dB -10.99 dB 2:59 ?-Silent of LoveDR8 0.00 dB -10.99 dB 2:38 ?-La CaliffaDR8 0.00 dB -11.03 dB 3:16 ?-MercenarioDR8 0.00 dB -11.00 dB 4:43 ?-TepepaDR8 0.00 dB -11.00 dB 4:17 ?-The Cicilian ClanDR9 0.00 dB -11.00 dB 3:27 ?-From American Sex Appeal to The First FelliniDR9 0.00 dB -11.03 dB 3:44 ?-FranticDR8 0.00 dB -11.02 dB 3:10 ?-Act of Faith--------------------------------------------------------------------------------

Number of tracks: 23Official DR value: DR8

Samplerate: 44100 HzChannels: 2Bits per sample: 16Bitrate: 1411 kbpsCodec: PCM================================================================================
</div>
</div>

Трекер:  [ 17-Июл-2017 22:06 ]

  

Скачать .torrent

Размер .torrent файла 17 KB


Размер: 1.61 GB
Хэш (hash) релиза: c85081def45e12193b2ec95d711a88c7c1a69963

Торренты, похожие на Ennio Morricone скачать торрент

Форум Название Автор Размер S L Добавлен
Саундтреки ·· (Soundtrack) все фильмы Ennio Morricone / коллекция фильмов (Ennio Morricone - Super Gold Edition) (Ennio Morricone) - 2005, FLAC (tracks), lossless L 20278121251.89 GB 0 0 1357036800

13:40

1-Янв-13

Саундтреки к фильмам и мультфильмам (lossless) ·· (Score) [CD] Yo-Yo Ma / Yo-Yo Ma plays Ennio Morricone (Ennio Morricone) - 2004, FLAC (tracks+.cue), lossless Galfimbul 291429170278 MB 0 0 1486314767

20:12

5-Фев-17

Саундтреки к фильмам и мультфильмам (lossless) ·· (Score) Ennio Morricone - Ennio Morricone Crime Movie Themes, Vol. 1 - 2016, FLAC (tracks), lossless Galfimbul 366815378350 MB 0 0 1477256132

23:55

23-Окт-16

Саундтреки к фильмам и мультфильмам (lossless) ·· (Score) Ennio Morricone - We All Love Ennio Morricone - 2007, WAVPack (image+.cue), lossless Galfimbul 422907124403 MB 0 0 1292270593

23:03

13-Дек-10

Саундтреки к фильмам и мультфильмам (lossless) ·· (Score) (Web) Ennio Morricone - Morricone 60 - 2016, FLAC (tracks), lossless Galfimbul 436803682417 MB 0 0 1479198783

11:33

15-Ноя-16

Саундтреки к фильмам и мультфильмам (mp3) ·· (Score) Ennio Morricone - So Sweet So Sensual: Erotica Morricone - 2004, MP3, V2 Galfimbul 6358725161 MB 0 0 1455472460

20:54

14-Фев-16

Классическая музыка (video) ·· Ennio Morricone: Peace Notes - Live in Venice (Giovanni Morricone) [2007 г., Instrumental, Blu-Ray Disc, 1080i] Galfimbul 4181086420038.94 GB 0 0 1316869336

16:02

24-Сен-11

Саундтреки к фильмам и мультфильмам (lossless) ·· (Score) Состояние исступления / State Of Grace (by Ennio Morricone) - 2017 (1990), FLAC (image+.cue), lossless Galfimbul 654787433624 MB 0 0 1506763389

12:23

30-Сен-17

Саундтреки к фильмам и мультфильмам (mp3) ·· (Score) Состояние исступления / State Of Grace (by Ennio Morricone) - 2017 (1990), MP3, 320 kbps Galfimbul 296051799282 MB 0 0 1506763369

12:22

30-Сен-17

Саундтреки к фильмам и мультфильмам (mp3) ·· (Instrumental, Soundtrack) Ennio Morricone - Film Music 1966-1987 (1987) [2CD], MP3, 320 kbps Galfimbul 292165214279 MB 0 0 1498720241

10:10

29-Июн-17

Саундтреки к фильмам и мультфильмам (mp3) ·· (Compilation / Score) Ennio Morricone — Made in France — 2007, MP3 (tracks), 320 kbps Galfimbul 188928882180 MB 0 0 1496053381

13:23

29-Май-17

Саундтреки к фильмам и мультфильмам (mp3) ·· (Score) Quentin Tarantino's Movies. The Essential (Эннио Морриконе / Ennio Morricone) - 2017, MP3, 320 kbps Galfimbul 7666228173 MB 0 0 1495463074

17:24

22-Май-17

Саундтреки к фильмам и мультфильмам (lossless) ·· (Score) Кулаки в кармане / I pugni in tasca / La Cina e vicina (by Ennio Morricone) - 2009 (1965, 1967), FLAC (tracks+.cue), lossless Galfimbul 224461722214 MB 0 0 1486896597

13:49

12-Фев-17

Саундтреки к фильмам и мультфильмам (lossless) ·· (Score, Stage & Screen) Двое во вселенной / Correspondence - La Corrispondenza (by Ennio Morricone) (Original Soundtrack) - 2016, FLAC (tracks), lossless Galfimbul 267031189255 MB 0 0 1476851585

07:33

19-Окт-16

Саундтреки к фильмам и мультфильмам (mp3) ·· (Stage & Screen) Ennio Morricone - All The Best - 2016, MP3, 320 kbps Galfimbul 257336639245 MB 0 0 1472298432

14:47

27-Авг-16

Саундтреки к фильмам и мультфильмам (lossless) ·· (Score) Легенда о пианисте — La Leggenda Del Pianista Sull'Oceano (Ennio Morricone) - 1998, FLAC (tracks+.cue), lossless Galfimbul 350757920335 MB 0 0 1472176221

04:50

26-Авг-16

Саундтреки к фильмам и мультфильмам (mp3) ·· (Score) В мае делай всё, что тебе нравится / En mai, fais ce qu'il te plait / Come What May (by Ennio Morricone) - 2015, MP3 (tracks) 320 kbps Galfimbul 136413998130 MB 0 0 1469977871

18:11

31-Июл-16

Саундтреки к фильмам и мультфильмам (lossless) ·· (Score) В мае делай всё, что тебе нравится / En mai, fais ce qu'il te plait / Come What May (by Ennio Morricone) - 2015, FLAC (tracks+.cue), lossless Galfimbul 264405364252 MB 0 0 1469976070

17:41

31-Июл-16

Саундтреки к фильмам и мультфильмам (lossless) ·· (Score) Секрет / Le secret (by Ennio Morricone) - 2000 (1974), FLAC (image+.cue), lossless Galfimbul 301307759287 MB 0 0 1469714571

17:02

28-Июл-16

Еще никто не оставлял запись к записи скачать торрент Ennio Morricone . Будь первым!

!Обратная связь