Скачать через торрент Опасный Мышонок Danger Mouse Фильм бесплатно в хорошем качестве torrent

Скачивайте на UnionPeer.org фильмы через торрент без регистрации. Новинки кино в хорошем качестве через торрент. На UnionPeer.org можно скачать через торрент фильмы 2014 и 2015 годов. Самые новые фильмы.

Скачать торрент Опасный Мышонок Danger Mouse бесплатно через .torrent фильм мультфильм сериал

Если у вас наблюдаются проблемы со скриншотами, переходом по ссылками, скачиванием торрентов - проблемы в блокировщике рекламы AdBlock. #хорошегоДня!


Статистика раздачи
Размер:  2.4 GB   |    Зарегистрирован:  4 месяца 28 дней   |    .torrent скачан:  38 раз   |   
Раздают:  1  
   
Загрузка...
 
Автор Сообщение

Galfimbul

avatar Galfimbul


Опасный Мышонок / Danger Mouse

Страна: Великобритания
Жанр: мультфильм
Продолжительность: ~ 00:22:00
Год выпуска: 2015
Перевод: Любительский (двухголосый закадровый)
Русские субтитры: нет

Режиссёр: Роберт Каллен / Robert Cullen
Роли озвучивали: R.G. TheAngelOfDeath & SweetySacrifice
Перевод: VikaStorm,Romala

Описание: Под чутким руководством начальства в лице полковника К. одноглазый мышиный суперагент и его непутёвый напарник Пенфольд сражаются с мировым злом и в первую очередь со своими заклятыми врагами — бароном Силасом Гринбэком и его подручным Стилетто.

[img]http:// СПАМ

Качество: HDTVRip
Формат: MKV
Видео: AVC, 1280x720 (16:9), 25.000 fps, ~1992 Kbps
Аудио 1: (Russian) 48.0 KHz, AC3, 2 ch, 192 Kbps
Аудио 2: (English) 48.0 KHz, AC3, 2 ch, 192 Kbps
Субтитры: отсутствуют
Полное имя : Danger.Mouse.2015.S01E01.720p.HDTV.theangelofdeathsweetysacrifice.mkvФормат : MatroskaВерсия формата : Version 4 / Version 2Размер файла : 386 МбайтПродолжительность : 22 м.Общий поток : 2425 Кбит/секДата кодирования : UTC 2015-11-13 05:20:07Программа кодирования : mkvmerge v7.2.0 ('On Every Street') 32bit built on Sep 13 2014 15:42:11Библиотека кодирования : libebml v1.3.0 libmatroska v1.4.1DURATION : 00:22:14.336000000NUMBER_OF_FRAMES : 41698NUMBER_OF_BYTES : 32024064_STATISTICS_WRITING_APP : mkvmerge v7.2.0 ('On Every Street') 32bit built on Sep 13 2014 15:42:11_STATISTICS_WRITING_DATE_UTC : 2015-11-13 05:20:07_STATISTICS_TAGS : BPS DURATION NUMBER_OF_FRAMES NUMBER_OF_BYTES

ВидеоИдентификатор : 1Формат : AVCФормат/Информация : Advanced Video CodecПрофиль формата :
High@L4.1Параметр CABAC формата : ДаПараметр ReFrames формата : 5 кадровИдентификатор кодека : V_MPEG4/ISO/AVCПродолжительность : 22 м.Битрейт : 1992 Кбит/секШирина : 1280 пикселейВысота : 720 пикселейСоотношение сторон : 16:9Режим частоты кадров : ПостоянныйЧастота кадров : 25,000 кадров/секЦветовое пространство : YUVСубдискретизация насыщенности : 4:2:0Битовая глубина : 8 битТип развёртки : ПрогрессивнаяБит/(Пиксели*Кадры) : 0.086Размер потока : 317 Мбайт (82%)Библиотека кодирования : x264 core 148 r2597 e86f3a1Настройки программы : cabac=1 / ref=5 / deblock=1:0:0 / analyse=0x3:0x113 / me=umh / subme=8 / psy=1 / psy_rd=1.00:0.00 / mixed_ref=1 / me_range=16 / chroma_me=1 / trellis=1 / 8x8dct=1 / cqm=0 / deadzone=21,11 / fast_pskip=1 / chroma_qp_offset=-2 / threads=12 / lookahead_threads=2 / sliced_threads=0 / nr=0 / decimate=1 / interlaced=0 / bluray_compat=0 / constrained_intra=0 / bframes=3 / b_pyramid=2 / b_adapt=2 / b_bias=0 / direct=3 / weightb=1 / open_gop=0 / weightp=2 / keyint=250 / keyint_min=25 / scenecut=40 / intra_refresh=0 / rc_lookahead=50 / rc=crf / mbtree=1 / crf=18.0 / qcomp=0.60 / qpmin=0 / qpmax=69 / qpstep=4 / ip_ratio=1.40 / aq=1:1.00Default : ДаForced : НетКоэффициенты матрицы : BT.709DURATION : 00:22:14.280000000NUMBER_OF_FRAMES : 33357NUMBER_OF_BYTES : 340023357_STATISTICS_WRITING_APP : mkvmerge v7.2.0 ('On Every Street') 32bit built on Sep 13 2014 15:42:11_STATISTICS_WRITING_DATE_UTC : 2015-11-13 05:20:07_STATISTICS_TAGS : BPS DURATION NUMBER_OF_FRAMES NUMBER_OF_BYTES

Аудио #1Идентификатор : 2Формат : AC-3Формат/Информация : Audio Coding 3Расширение режима : CM (complete main)Параметр Endianness формата : BigИдентификатор кодека : A_AC3Продолжительность : 22 м.Вид битрейта : ПостоянныйБитрейт : 192 Кбит/секКаналы : 2 каналаРасположение каналов : Front: L RЧастота : 48,0 КГцБитовая глубина : 16 битМетод сжатия : С потерямиРазмер потока : 30,5 Мбайт (8%)Заголовок : RussianЯзык : RussianDefault : ДаForced : НетDURATION : 00:22:14.240000000NUMBER_OF_FRAMES : 41695NUMBER_OF_BYTES : 32021760_STATISTICS_WRITING_APP : mkvmerge v7.2.0 ('On Every Street') 32bit built on Sep 13 2014 15:42:11_STATISTICS_WRITING_DATE_UTC : 2015-11-13 05:20:07_STATISTICS_TAGS : BPS DURATION NUMBER_OF_FRAMES NUMBER_OF_BYTES

Аудио #2Идентификатор : 3Формат : AC-3Формат/Информация : Audio Coding 3Расширение режима : CM (complete main)Параметр Endianness формата : BigИдентификатор кодека : A_AC3Продолжительность : 22 м.Вид битрейта : ПостоянныйБитрейт : 192 Кбит/секКаналы : 2 каналаРасположение каналов : Front: L RЧастота : 48,0 КГцБитовая глубина : 16 битМетод сжатия : С потерямиРазмер потока : 30,5 Мбайт (8%)Заголовок : EnglishЯзык : EnglishDefault : НетForced : Нет
[url=http://fastpic.ru/view/73/2015/1104/297e1d19cb96ab4ef2f907ae02933b6a.jpg.html]


Трекер:  [ 19-Июл-2017 03:24 ]

  

Скачать .torrent

Размер .torrent файла 13 KB


Размер: 2.4 GB
Хэш (hash) релиза: 7c085c5aa16fb7f0205ca87fab69d69f13dab5e0
Подписка на обновления:

Еще никто не оставлял запись к записи скачать торрент Опасный Мышонок Danger Mouse . Будь первым!

!Обратная связь