Скачать через торрент Время Приключений Adventure Time Фильм бесплатно в хорошем качестве torrent

Скачивайте на UnionPeer.org фильмы через торрент без регистрации. Новинки кино в хорошем качестве через торрент. На UnionPeer.org можно скачать через торрент фильмы 2014 и 2015 годов. Самые новые фильмы.

Скачать торрент Время Приключений Adventure Time бесплатно через .torrent фильм мультфильм сериал

Если у вас наблюдаются проблемы со скриншотами, переходом по ссылками, скачиванием торрентов - проблемы в блокировщике рекламы AdBlock. #хорошегоДня!


Статистика раздачи
Размер:  4.74 GB   |    Зарегистрирован:  4 месяца 26 дней   |    .torrent скачан:  66 раз   |   
Раздают:  1  
   
Загрузка...
 
Автор Сообщение

Galfimbul

avatar Galfimbul


Время Приключений | Пора Приключений
Adventure Time with Finn & JakeСезон 9Серии: 1-14 из ??
Страна: США
Производство: Cartoon Network
Жанр: Мультфильм, фэнтези, комедия, приключения
Продолжительность: 00:11:00
Года выпуска: 2017
Перевод:

Любительский (двухголосый закадровый) | Т.О Друзей
Оригинальная звуковая дорожка (English)

Русские субтитры: есть
Английские субтитры: естьРежиссёр: Ларри Лэйчлитер / Larry LeichliterСериал повествует о необыкновенных и весёлых приключениях двух лучших друзей: мальчика Финна и его собаки Джейка. Действие сериала происходит в волшебной стране Ууу. Финн — 13-летний мальчик, который обожает путешествовать и спасать принцесс из лап ужасных монстров и злодеев, населяющих Землю Ууу. Джейк — лучший друг Финна. Это волшебная собака со способностью растягивать своё тело до практически любых размеров и форм. Джейку 28 лет и он исполняет роль эдакого приятеля-наставника Финна, а его волшебные способности помогают мальчику в его борьбе со злом. Все раздачи мультсериалаКачество: WEB-DL 1080p
Формат: MKV
Видео: 1920x1080 (16:9) at 23.976 fps, High@L4.0, ~5000 kbps avg, ~0.101bpp
Видео: 1920x1080 (16:9) at 23.976 fps, High@L4.0, ~2000 kbps avg, ~0.041bpp | для 10-14 эпизодов
Аудио:

Russian: 48 kHz, AC3 Dolby Digital, 2 ch, ~192 kbps | Т.О Друзей
English: 48 kHz, AAC Dolby Digital, 2 ch, ~160 kbps

Субтитры: Russian (by Tanis, *.ass), Russian (by J-sUn, *.ass), English (*.srt)
GeneralUnique ID : 244862890452248329377531161703766809005 (0xB836E096ACD3AF51A59CABAA1533D9AD)Complete name : \Adventure Time With Finn And Jake - Season 9\Adventure.Time.S09E04E05.Elements.3.Winter.Light.-.Elements.4.Cloudy.1080p.WEB-DL.TODruzey.Eng.Sub.mkvFormat : MatroskaFormat version : Version 4 / Version 2File size : 878 MiBDuration : 22 min 17 sOverall bit rate : 5 508 kb/sMovie name : Elements Part 3: Winter Light / Elements Part 4: CloudyEncoded date : UTC 2017-07-22 19:49:49Writing application : mkvmerge v13.0.0 ('The Juggler') 64bitWriting library : libebml v1.3.4 + libmatroska v1.4.5Attachments : Median Subtitles.ttf / poster.jpg

VideoID : 1Format : AVCFormat/Info : Advanced Video CodecFormat profile : High@L4Format settings, CABAC : YesFormat settings, ReFrames : 4 framesFormat settings, GOP : N=1Codec ID : V_MPEG4/ISO/AVCDuration : 22 min 17 sBit rate : 5 181 kb/sWidth : 1 920 pixelsHeight : 1 080 pixelsDisplay aspect ratio : 16:9Frame rate mode : ConstantFrame rate : 23.976 FPSColor space : YUVChroma subsampling : 4:2:0Bit depth : 8 bitsScan type : ProgressiveBits/(Pixel*Frame) : 0.104Stream size : 826 MiB (94%)Title : Adventure.Time.S09E04E05.Elements.3.Winter.Light.-.Elements.4.CloudyLanguage : EnglishDefault : YesForced : NoColor range : LimitedColor primaries : BT.709Transfer characteristics : BT.709Matrix coefficients : BT.709

Audio #1ID : 2Format : AC-3Format/Info : Audio Coding 3Mode extension : CM (complete main)Format settings, Endianness : BigCodec ID : A_AC3Duration : 22 min 16 sBit rate mode : ConstantBit rate : 192 kb/sChannel(s) : 2 channelsChannel positions : Front: L RSampling rate : 48.0 kHzFrame rate : 31.250 FPS (1536 spf)Bit depth : 16 bitsCompression mode : LossyStream size : 30.6 MiB (3%)Title : 48 kHz, AC3 Dolby Digital, 2 ch, ~192 kbps [AVO Т.О Друзей]Language : RussianDefault : YesForced : No

Audio #2ID : 3Format : AACFormat/Info : Advanced Audio CodecFormat profile : LCCodec ID : A_AACDuration : 22 min 17 sBit rate : 125 kb/sChannel(s) : 2 channelsChannel positions : Front: L RSampling rate : 48.0 kHzFrame rate : 46.875 FPS (1024 spf)Compression mode : LossyStream size : 19.9 MiB (2%)Title : 48 kHz, AAC Dolby Digital, 2 ch, ~160 kbpsLanguage : EnglishDefault : NoForced : No

Text #1ID : 4Format : ASSCodec ID : S_TEXT/ASSCodec ID/Info : Advanced Sub Station AlphaDuration : 19 min 41 sBit rate : 13 b/sCount of elements : 19Compression mode : LosslessStream size : 2.00 KiB (0%)Title : forcedLanguage : RussianDefault : YesForced : No

Text #2ID : 5Format : ASSCodec ID : S_TEXT/ASSCodec ID/Info : Advanced Sub Station AlphaDuration : 21 min 54 sBit rate : 210 b/sCount of elements : 478Compression mode : LosslessStream size : 33.8 KiB (0%)Title : TanisLanguage : RussianDefault : NoForced : No

Text #3ID : 6Format : ASSCodec ID : S_TEXT/ASSCodec ID/Info : Advanced Sub Station AlphaDuration : 21 min 54 sBit rate : 210 b/sCount of elements : 478Compression mode : LosslessStream size : 33.8 KiB (0%)Title : Median sub, TanisLanguage : RussianDefault : NoForced : No

Text #4ID : 7Format : ASSCodec ID : S_TEXT/ASSCodec ID/Info : Advanced Sub Station AlphaDuration : 21 min 30 sBit rate : 183 b/sCount of elements : 333Compression mode : LosslessStream size : 29.0 KiB (0%)Title : J-sUn (T.O. Друзей)Language : RussianDefault : NoForced : No

Text #5ID : 8Format : UTF-8Codec ID : S_TEXT/UTF8Codec ID/Info : UTF-8 Plain TextDuration : 22 min 12 sBit rate : 118 b/sCount of elements : 499Stream size : 19.2 KiB (0%)Language : EnglishDefault : NoForced : No

Menu00:00:00.000 : en:Intro00:00:26.443 : en:Elements Part 3: Winter Light00:11:07.250 : en:Outro00:11:17.738 : en:Elements Part 4: Cloudy00:21:58.586 : en:Outro
(Полноразмерные скриншоты открываются кликом по миниатюре)
01. Сфера / Orb
02a. Элементы 1: Небесные крючья / Elements Part 1: Skyhooks
02b. Элементы 2: Индивидуальный Пошив / Elements Part 2: Bespoken For
03a. Элементы 3: Ледяной свет / Elements Part 3: Winter Light
03b. Элементы 4: Облачко / Elements Part 4: Cloudy
04a. Элементы 5: Слизь во все поля / Elements Part 5: Slime Central
04b. Элементы 6: Счастливая воительница / Elements Part 6: Happy Warrior
05a. Элементы 7: Сердце героя / Elements Part 7: Hero Heart
05b. Элементы 8: Небесные крючья 2 / Elements Part 8: Skyhooks II
06a. Абстракность / Abstract
06b. Кетчуп / Ketchup
07a. Фиона и Кейк и Фиона / Fionna and Cake and Fionna
07b. Шёпот / Whispers
08. Три ведра / Three Buckets


Трекер:  [ 22-Июл-2017 23:24 ]

  

Скачать .torrent

Размер .torrent файла 13 KB


Размер: 4.74 GB
Хэш (hash) релиза: 7a376bdc41cf6c3b1517911bb30be86f69efe16f
Подписка на обновления:

Еще никто не оставлял запись к записи скачать торрент Время Приключений Adventure Time . Будь первым!

!Обратная связь