Скачать через торрент музыку Волейбол!! Haikyuu!! бесплатно без регистрации torrent

Если у вас наблюдаются проблемы со скриншотами, переходом по ссылками, скачиванием торрентов - проблемы в блокировщике рекламы AdBlock. #хорошегоДня!


Статистика раздачи
Размер:  4.03 GB   |    Зарегистрирован:  4 месяца 17 дней   |    .torrent скачан:  23 раза   |   
Раздают:  1  
   
Загрузка...
 
Автор Сообщение

Galfimbul

avatar Galfimbul




Страна: Япония | Год издания: 2014-2017 | Аудио кодек: FLAC | Тип рипа: tracks, image+.cue | Битрейт: lossless | Продолжителность: 10:04:17
<div class="sp-wrap">
<div class="sp-head folded">OP1 Single - Imagination</div>
<div class="sp-body">
Исполнитель: SPYAIR
Продолжительность: 11:43
Тип рипа: image+.cue
Треклист:

Imagination
Trust your anthem
Imagination (inst.)
Trust your anthem (inst.)

<div class="sp-wrap">
<div class="sp-head folded">Лог проверки качества</div>
<div class="sp-body">

Exact Audio Copy V1.0 beta 3 from 29. August 2011

EAC extraction logfile from 3. May 2014, 21:56

SPYAIR / イマジネーション 【初回限定盤】

Used drive : PLDS DVD+-RW DH-16AAS Adapter: 1 ID: 0

Read mode : SecureUtilize accurate stream : YesDefeat audio cache : NoMake use of C2 pointers : No

Read offset correction : 6Overread into Lead-In and Lead-Out : NoFill up missing offset samples with silence : YesDelete leading and trailing silent blocks : NoNull samples used in CRC calculations : YesUsed interface : Native Win32 interface for Win NT & 2000

Used output format : Internal WAV RoutinesSample format : 44.100 Hz; 16 Bit; Stereo

TOC of the extracted CD

Track | Start | Length | Start sector | End sector --------------------------------------------------------- 1 | 0:00.00 | 2:57.64 | 0 | 13338 2 | 2:57.64 | 2:54.68 | 13339 | 26456 3 | 5:52.57 | 2:57.60 | 26457 | 39791 4 | 8:50.42 | 2:51.73 | 39792 | 52689

Range status and errors

Selected range

Filename G:\EAC_Rip\[EAC][140430] SPYAIR - イマジネーション 【初回限定盤】(wav+cue+log+jpg+iso+mds)\SPYAIR - イマジネーション 【初回限定盤】.wav

Peak level 100.0 % Extraction speed 7.7 X Range quality 99.9 % Copy CRC B3AC8A07 Copy OK

No errors occurred

End of status report

---- CUETools DB Plugin V2.1.3

[CTDB TOCID: OHzZgbvJS4vsv05cxf3vOnKuHPU-] found, Submit result: OHzZgbvJS4vsv05cxf3vOnKuHPU- has been confirmed[909ea9b5] (1/1) Accurately ripped

==== Log checksum 61668821CC8D901783CEE4F3FC11976ADE41A27DF17A5DF6029E804428BCB9F2 ====
</div>
</div>
[spoiler="OP2 Single - Ah Yeah!! [Limited Edition]"]
Исполнитель: Sukima Switch
Продолжительность: 20:51
Тип рипа: image+.cue
Треклист:

Ah Yeah!!
Natsu no Cosmonaut ~Interhigh Ouenka~
passage (from Shinjuku LOFT 2014.4.9)
Ah Yeah!! (anime ver.)
Ah Yeah!! (backing track)

<div class="sp-wrap">
<div class="sp-head folded">Лог проверки качества</div>
<div class="sp-body">

Exact Audio Copy V1.0 beta 3 from 29. August 2011

EAC extraction logfile from 10. August 2014, 21:14

スキマスイッチ / 「ハイキュー!!」OP:Ah Yeah!!

Used drive : PIONEER DVD-RW DVR-221L Adapter: 2 ID: 0

Read mode : SecureUtilize accurate stream : YesDefeat audio cache : YesMake use of C2 pointers : No

Read offset correction : 6Overread into Lead-In and Lead-Out : NoFill up missing offset samples with silence : YesDelete leading and trailing silent blocks : NoNull samples used in CRC calculations : YesUsed interface : Native Win32 interface for Win NT & 2000

Used output format : User Defined EncoderSelected bitrate : 1024 kBit/sQuality : HighAdd ID3 tag : NoCommand line compressor : H:\Tools\Exact Audio Copy\FLAC\FLAC.EXEAdditional command line options : -6 -V -T "ARTIST=%artist%" -T "TITLE=%title%" -T "ALBUM=%albumtitle%" -T "DATE=%year%" -T "TRACKNUMBER=%tracknr%" -T "GENRE=%genre%" -T "COMMENT=%comment%" -T "BAND=%albuminterpret%" -T "ALBUMARTIST=%albuminterpret%" -T "COMPOSER=%composer%" %haslyrics%--tag-from-file=LYRICS="%lyricsfile%"%haslyrics% -T "DISCNUMBER=%cdnumber%" -T "TOTALDISCS=%totalcds%" -T "TOTALTRACKS=%numtracks%" %hascover%--picture="%coverfile%"%hascover% %source% -o %dest%

TOC of the extracted CD

Track | Start | Length | Start sector | End sector --------------------------------------------------------- 1 | 0:00.00 | 5:07.66 | 0 | 23090 2 | 5:07.66 | 4:32.55 | 23091 | 43545 3 | 9:40.46 | 4:28.45 | 43546 | 63690 4 | 14:09.16 | 1:34.08 | 63691 | 70748 5 | 15:43.24 | 5:07.30 | 70749 | 93803

Range status and errors

Selected range

Filename H:\Ripped discs by hjknight\AUCL-163\AUCL-163.wav

Peak level 97.9 % Extraction speed 5.7 X Range quality 100.0 % Copy CRC 54A47373 Copy OK

No errors occurred

AccurateRip summary

Track 1 not present in databaseTrack 2 not present in databaseTrack 3 not present in databaseTrack 4 not present in databaseTrack 5 not present in database

None of the tracks are present in the AccurateRip database

End of status report

---- CUETools DB Plugin V2.1.3

[CTDB TOCID: cUQwHtfElCbphi_OGYI3sWb0BH0-] found, Submit result: cUQwHtfElCbphi_OGYI3sWb0BH0- has been confirmed[0f165288] (1/1) Accurately ripped

==== Log checksum 84B1761436BFEB859B0D79F39AA15FD9B11C9FC3EBB4F72BA079F9C6F6E4A2A1 ====
[/spoiler]
</div>
</div>
Исполнитель: NICO Touches the Walls
Продолжительность: 8:24
Тип рипа: image+.cue
Треклист:

Tenchi Gaeshi
Hana no Yume

<div class="sp-wrap">
<div class="sp-head folded">Лог проверки качества</div>
<div class="sp-body">

Exact Audio Copy V1.0 beta 3 from 29. August 2011

EAC extraction logfile from 6. July 2014, 19:39

NICO Touches the Walls / 天地ガエシ

Used drive : PIONEER DVD-RW DVR-221L Adapter: 2 ID: 0

Read mode : SecureUtilize accurate stream : YesDefeat audio cache : YesMake use of C2 pointers : No

Read offset correction : 6Overread into Lead-In and Lead-Out : NoFill up missing offset samples with silence : YesDelete leading and trailing silent blocks : NoNull samples used in CRC calculations : YesUsed interface : Native Win32 interface for Win NT & 2000

Used output format : User Defined EncoderSelected bitrate : 1024 kBit/sQuality : HighAdd ID3 tag : NoCommand line compressor : D:\Tools\Exact Audio Copy\FLAC\FLAC.EXEAdditional command line options : -6 -V -T "ARTIST=%artist%" -T "TITLE=%title%" -T "ALBUM=%albumtitle%" -T "DATE=%year%" -T "TRACKNUMBER=%tracknr%" -T "GENRE=%genre%" -T "COMMENT=%comment%" -T "BAND=%albuminterpret%" -T "ALBUMARTIST=%albuminterpret%" -T "COMPOSER=%composer%" %haslyrics%--tag-from-file=LYRICS="%lyricsfile%"%haslyrics% -T "DISCNUMBER=%cdnumber%" -T "TOTALDISCS=%totalcds%" -T "TOTALTRACKS=%numtracks%" %hascover%--picture="%coverfile%"%hascover% %source% -o %dest%

TOC of the extracted CD

Track | Start | Length | Start sector | End sector --------------------------------------------------------- 1 | 0:00.00 | 4:46.47 | 0 | 21496 2 | 4:46.47 | 3:37.64 | 21497 | 37835

Range status and errors

Selected range

Filename D:\Ripped discs by hjknight\KSCL-2445\KSCL-2445.wav

Peak level 99.0 % Extraction speed 4.7 X Range quality 100.0 % Copy CRC FCF56CC9 Copy OK

No errors occurred

AccurateRip summary

Track 1 not present in databaseTrack 2 not present in database

None of the tracks are present in the AccurateRip database

End of status report

---- CUETools DB Plugin V2.1.3

[CTDB TOCID: fZJz09vXX9rpFCvKt5WOxFdK6Fg-] found, Submit result: fZJz09vXX9rpFCvKt5WOxFdK6Fg- has been confirmed[abdedd29] (5/5) Accurately ripped

==== Log checksum 6D5CE52B9795F799FAFC347884FADFD6893D1EDDEC3839CA1EE450BEBADC3350 ====
</div>
</div>
[spoiler="ED2 Single - LEO [Limited Edition]"]
Исполнитель: tacica
Продолжительность: 9:07
Тип рипа: image+.cue
Треклист:

LEO
Nibiiro no Kaikou
LEO (TV edit)

<div class="sp-wrap">
<div class="sp-head folded">Лог проверки качества</div>
<div class="sp-body">

Exact Audio Copy V1.0 beta 3 from 29. August 2011

EAC extraction logfile from 27. September 2014, 15:39

tacica / LEO [初回盤]

Used drive : PIONEER DVD-RW DVR-221L Adapter: 2 ID: 0

Read mode : SecureUtilize accurate stream : YesDefeat audio cache : YesMake use of C2 pointers : No

Read offset correction : 6Overread into Lead-In and Lead-Out : NoFill up missing offset samples with silence : YesDelete leading and trailing silent blocks : NoNull samples used in CRC calculations : YesUsed interface : Native Win32 interface for Win NT & 2000

Used output format : User Defined EncoderSelected bitrate : 1024 kBit/sQuality : HighAdd ID3 tag : NoCommand line compressor : H:\Tools\Exact Audio Copy\FLAC\FLAC.EXEAdditional command line options : -6 -V -T "ARTIST=%artist%" -T "TITLE=%title%" -T "ALBUM=%albumtitle%" -T "DATE=%year%" -T "TRACKNUMBER=%tracknr%" -T "GENRE=%genre%" -T "COMMENT=%comment%" -T "BAND=%albuminterpret%" -T "ALBUMARTIST=%albuminterpret%" -T "COMPOSER=%composer%" %haslyrics%--tag-from-file=LYRICS="%lyricsfile%"%haslyrics% -T "DISCNUMBER=%cdnumber%" -T "TOTALDISCS=%totalcds%" -T "TOTALTRACKS=%numtracks%" %hascover%--picture="%coverfile%"%hascover% %source% -o %dest%

TOC of the extracted CD

Track | Start | Length | Start sector | End sector --------------------------------------------------------- 1 | 0:00.00 | 4:14.49 | 0 | 19098 2 | 4:14.49 | 3:21.44 | 19099 | 34217 3 | 7:36.18 | 1:30.61 | 34218 | 41028

Range status and errors

Selected range

Filename H:\Ripped discs by hjknight\SECL-1577\SECL-1577.wav

Peak level 100.0 % Extraction speed 4.7 X Range quality 100.0 % Copy CRC 0737CF4A Copy OK

No errors occurred

AccurateRip summary

Track 1 not present in databaseTrack 2 not present in databaseTrack 3 not present in database

None of the tracks are present in the AccurateRip database

End of status report

---- CUETools DB Plugin V2.1.3

[CTDB TOCID: 41nezxFcfVIjUltapkGjpmCxXQk-] found, Submit result: 41nezxFcfVIjUltapkGjpmCxXQk- has been confirmed[34a161a4] (2/2) Accurately ripped

==== Log checksum 819C6A7709BF502477A63F6E89264DF957311CE7EEE75137A8A5EAD8C5ADA419 ====
[/spoiler]
</div>
</div>
Исполнитель: Yuki Hayashi, Asami Tachibana
Продолжительность: 1:01:38
Тип рипа: image+.cue
Треклист:

Itadaki No Keshiki
Haikyuu!!
Saikyou No Otori
Kouto Jou no Ousama
Haisha
Akogare
Henjin Sokkou
Toppakou
Kagaku Henka
Senpai No Jitsuryoku
Sakusen Kaigi
Umaku Ika Nai
Trauma
Kodoku
Kageyama hi Yuu
Se-n-pa-i
Ikari
Hinata to Kageyama
Mokuhyou
Saikyou No Mikata
Combi Tanjou
Omoshiroi Team
Oikawa Tooru
Kyougou Kou
Shiai wo Kasaneru Tabi ni
Teammate
Kitai

<div class="sp-wrap">
<div class="sp-head folded">Лог проверки качества</div>
<div class="sp-body">

Exact Audio Copy V1.0 beta 3 from 29. August 2011

EAC extraction logfile from 18. November 2014, 11:43

林ゆうき、橘麻美 / TVアニメ 『ハイキュー!!』 オリジナル サウンドトラック Vol.1

Used drive : PIONEER BD-RW BDR-207 Adapter: 5 ID: 0

Read mode : SecureUtilize accurate stream : YesDefeat audio cache : YesMake use of C2 pointers : No

Read offset correction : 667Overread into Lead-In and Lead-Out : NoFill up missing offset samples with silence : YesDelete leading and trailing silent blocks : NoNull samples used in CRC calculations : YesUsed interface : Native Win32 interface for Win NT & 2000

Used output format : Internal WAV RoutinesSample format : 44.100 Hz; 16 Bit; Stereo

TOC of the extracted CD

Track | Start | Length | Start sector | End sector --------------------------------------------------------- 1 | 0:00.00 | 1:31.73 | 0 | 6897 2 | 1:31.73 | 3:54.27 | 6898 | 24474 3 | 5:26.25 | 1:50.00 | 24475 | 32724 4 | 7:16.25 | 1:38.00 | 32725 | 40074 5 | 8:54.25 | 2:42.00 | 40075 | 52224 6 | 11:36.25 | 2:23.00 | 52225 | 62949 7 | 13:59.25 | 2:54.00 | 62950 | 75999 8 | 16:53.25 | 2:50.00 | 76000 | 88749 9 | 19:43.25 | 2:44.00 | 88750 | 101049 10 | 22:27.25 | 1:51.00 | 101050 | 109374 11 | 24:18.25 | 1:30.38 | 109375 | 116162 12 | 25:48.63 | 2:46.00 | 116163 | 128612 13 | 28:34.63 | 1:49.00 | 128613 | 136787 14 | 30:23.63 | 2:06.00 | 136788 | 146237 15 | 32:29.63 | 2:02.00 | 146238 | 155387 16 | 34:31.63 | 2:20.00 | 155388 | 165887 17 | 36:51.63 | 2:30.00 | 165888 | 177137 18 | 39:21.63 | 2:17.00 | 177138 | 187412 19 | 41:38.63 | 3:28.00 | 187413 | 203012 20 | 45:06.63 | 1:38.00 | 203013 | 210362 21 | 46:44.63 | 2:23.37 | 210363 | 221124 22 | 49:08.25 | 2:12.00 | 221125 | 231024 23 | 51:20.25 | 1:15.00 | 231025 | 236649 24 | 52:35.25 | 2:31.00 | 236650 | 247974 25 | 55:06.25 | 2:09.38 | 247975 | 257687 26 | 57:15.63 | 2:44.00 | 257688 | 269987 27 | 59:59.63 | 1:38.17 | 269988 | 277354

Range status and errors

Selected range

Filename E:\Music\THCA-60045.wav

Peak level 98.8 % Extraction speed 7.5 X Range quality 100.0 % Copy CRC 7550DADC Copy OK

No errors occurred

AccurateRip summary

Track 1 not present in databaseTrack 2 not present in databaseTrack 3 not present in databaseTrack 4 not present in databaseTrack 5 not present in databaseTrack 6 not present in databaseTrack 7 not present in databaseTrack 8 not present in databaseTrack 9 not present in databaseTrack 10 not present in databaseTrack 11 not present in databaseTrack 12 not present in databaseTrack 13 not present in databaseTrack 14 not present in databaseTrack 15 not present in databaseTrack 16 not present in databaseTrack 17 not present in databaseTrack 18 not present in databaseTrack 19 not present in databaseTrack 20 not present in databaseTrack 21 not present in databaseTrack 22 not present in databaseTrack 23 not present in databaseTrack 24 not present in databaseTrack 25 not present in databaseTrack 26 not present in databaseTrack 27 not present in database

None of the tracks are present in the AccurateRip database

End of status report

---- CUETools DB Plugin V2.1.3

[CTDB TOCID: 2RoFopPtBOG1TZNzNvYwJ_dZ2ms-] disk not present in database, Submit result: 2RoFopPtBOG1TZNzNvYwJ_dZ2ms- has been uploaded

==== Log checksum 85B6FA0B23C4AA843AE807F21C23172B3FB5352707253946079BBF6A01D0F4FA ====
</div>
</div>
Исполнитель: Yuki Hayashi, Asami Tachibana
Продолжительность: 1:02:38
Тип рипа: image+.cue
Треклист:

Totsunyuu
Shinka
Otona Tachi
Koutekishu (Raibaru)
Kageyama VS Tsukishima
Tsunagu Toiu Koto
Neko
Kanji Warui
Tsuujo Unten
Shousha to Haisha
6 Nin de Tsuyoi Ho ga Tsuyoi
Kuyashisa
Bunseki
Sakanoshita Shouten
Shikisha
Kamiwaza Sokkou
1 Ten
Nebari
Nou
Aseri
Ace no Shishitsu
Kanzen Muchi no Shireitou
Team no Jiriki
Kecchaku
Honne
Tsuyokunare

<div class="sp-wrap">
<div class="sp-head folded">Лог проверки качества</div>
<div class="sp-body">

Exact Audio Copy V1.0 beta 3 from 29. August 2011

EAC extraction logfile from 19. December 2014, 15:46

林ゆうき、橘麻美 / ハイキュー!! O.S.T. 2

Used drive : PIONEER BD-RW BDR-207 Adapter: 5 ID: 0

Read mode : SecureUtilize accurate stream : YesDefeat audio cache : YesMake use of C2 pointers : No

Read offset correction : 667Overread into Lead-In and Lead-Out : NoFill up missing offset samples with silence : YesDelete leading and trailing silent blocks : NoNull samples used in CRC calculations : YesUsed interface : Native Win32 interface for Win NT & 2000

Used output format : Internal WAV RoutinesSample format : 44.100 Hz; 16 Bit; Stereo

TOC of the extracted CD

Track | Start | Length | Start sector | End sector --------------------------------------------------------- 1 | 0:00.00 | 2:39.25 | 0 | 11949 2 | 2:39.25 | 2:55.00 | 11950 | 25074 3 | 5:34.25 | 1:40.00 | 25075 | 32574 4 | 7:14.25 | 1:43.00 | 32575 | 40299 5 | 8:57.25 | 1:38.00 | 40300 | 47649 6 | 10:35.25 | 2:53.00 | 47650 | 60624 7 | 13:28.25 | 2:08.00 | 60625 | 70224 8 | 15:36.25 | 3:45.00 | 70225 | 87099 9 | 19:21.25 | 1:59.00 | 87100 | 96024 10 | 21:20.25 | 2:17.00 | 96025 | 106299 11 | 23:37.25 | 2:51.00 | 106300 | 119124 12 | 26:28.25 | 2:40.00 | 119125 | 131124 13 | 29:08.25 | 1:41.00 | 131125 | 138699 14 | 30:49.25 | 2:26.00 | 138700 | 149649 15 | 33:15.25 | 2:06.00 | 149650 | 159099 16 | 35:21.25 | 2:53.00 | 159100 | 172074 17 | 38:14.25 | 2:38.00 | 172075 | 183924 18 | 40:52.25 | 1:42.00 | 183925 | 191574 19 | 42:34.25 | 2:11.00 | 191575 | 201399 20 | 44:45.25 | 2:06.00 | 201400 | 210849 21 | 46:51.25 | 2:03.00 | 210850 | 220074 22 | 48:54.25 | 2:20.00 | 220075 | 230574 23 | 51:14.25 | 2:58.00 | 230575 | 243924 24 | 54:12.25 | 3:11.00 | 243925 | 258249 25 | 57:23.25 | 2:04.00 | 258250 | 267549 26 | 59:27.25 | 3:10.18 | 267550 | 281817

Range status and errors

Selected range

Filename E:\Music\THCA-60048.wav

Peak level 98.8 % Extraction speed 7.5 X Range quality 99.9 % Copy CRC 5F747BC0 Copy OK

No errors occurred

AccurateRip summary

Track 1 not present in databaseTrack 2 not present in databaseTrack 3 not present in databaseTrack 4 not present in databaseTrack 5 not present in databaseTrack 6 not present in databaseTrack 7 not present in databaseTrack 8 not present in databaseTrack 9 not present in databaseTrack 10 not present in databaseTrack 11 not present in databaseTrack 12 not present in databaseTrack 13 not present in databaseTrack 14 not present in databaseTrack 15 not present in databaseTrack 16 not present in databaseTrack 17 not present in databaseTrack 18 not present in databaseTrack 19 not present in databaseTrack 20 not present in databaseTrack 21 not present in databaseTrack 22 not present in databaseTrack 23 not present in databaseTrack 24 not present in databaseTrack 25 not present in databaseTrack 26 not present in database

None of the tracks are present in the AccurateRip database

End of status report

---- CUETools DB Plugin V2.1.3

[CTDB TOCID: HSrO1BEB_aYgHlTTEKTUiuNd.gs-] disk not present in database, Submit result: HSrO1BEB_aYgHlTTEKTUiuNd.gs- has been uploaded

==== Log checksum E086916D377004174719C92AE83CF13A7F4116B98D79F8C458C39540F585B4E6 ====
</div>
</div>
</div>
</div>
<div class="sp-wrap">
<div class="sp-head folded">OP1 Single - I'm a Believer</div>
<div class="sp-body">
Исполнитель: SPYAIR
Продолжительность: 11:08
Тип рипа: image+.cue
Треклист:

I'm a Believer
Imagination (Live at FUJI-Q HIGHLAND 2015.8.8)
I'm a Believer (inst.)

<div class="sp-wrap">
<div class="sp-head folded">Лог проверки качества</div>
<div class="sp-body">

Exact Audio Copy V1.0 beta 3 from 29. August 2011

EAC extraction logfile from 31. October 2015, 19:17

SPYAIR / アイム・ア・ビリーバー

Used drive : PIONEER BD-RW BDR-206 Adapter: 2 ID: 0

Read mode : SecureUtilize accurate stream : YesDefeat audio cache : YesMake use of C2 pointers : No

Read offset correction : 667Overread into Lead-In and Lead-Out : NoFill up missing offset samples with silence : YesDelete leading and trailing silent blocks : NoNull samples used in CRC calculations : YesUsed interface : Native Win32 interface for Win NT & 2000

Used output format : User Defined EncoderSelected bitrate : 1024 kBit/sQuality : HighAdd ID3 tag : NoCommand line compressor : H:\Tools\Exact Audio Copy\FLAC\FLAC.EXEAdditional command line options : -5 -V -T "ARTIST=%artist%" -T "ALBUM=%albumtitle%" -T "DATE=%year%" -T "TOTALDISCS=%totalcds%" -T "TOTALTRACKS=%numtracks%" -T "COMMENT=Exact Audio Copy, AccurateRip & CTDB, Flac Level 5" %source% -o %dest%

TOC of the extracted CD

Track | Start | Length | Start sector | End sector --------------------------------------------------------- 1 | 0:00.00 | 3:39.41 | 0 | 16465 2 | 3:39.41 | 3:53.70 | 16466 | 34010 3 | 7:33.36 | 3:34.71 | 34011 | 50131

Range status and errors

Selected range

Filename H:\Ripped discs by hjknight\AICL-2996\AICL-2996.wav

Peak level 99.2 % Extraction speed 4.8 X Range quality 100.0 % Copy CRC A903AF9F Copy OK

No errors occurred

AccurateRip summary

Track 1 not present in databaseTrack 2 not present in databaseTrack 3 not present in database

None of the tracks are present in the AccurateRip database

End of status report

---- CUETools DB Plugin V2.1.4

[CTDB TOCID: gFrZfbLclA9Wqi0FHBToiD2akrc-] database access error: 操作超时

==== Log checksum 737DE969FF285F69909852439B2C3A2092B6D4F3BF278AEB44FFC74A17A70343 ====
</div>
</div>
Исполнитель: BURNOUT SYNDROMES
Продолжительность: 19:28
Тип рипа: image+.cue
Треклист:

FLY HIGH!!
Air Guitar Girl
Sakura Canon
FLY HIGH!! [Anime Version]
FLY HIGH!! [Instrumental]

<div class="sp-wrap">
<div class="sp-head folded">Лог проверки качества</div>
<div class="sp-body">

Exact Audio Copy V1.0 beta 3 from 29. August 2011

EAC extraction logfile from 6. March 2016, 10:38

BURNOUT SYNDROMES / FLY HIGH!! [初回盤]

Used drive : PIONEER BD-RW BDR-206 Adapter: 2 ID: 0

Read mode : SecureUtilize accurate stream : YesDefeat audio cache : YesMake use of C2 pointers : No

Read offset correction : 667Overread into Lead-In and Lead-Out : NoFill up missing offset samples with silence : YesDelete leading and trailing silent blocks : NoNull samples used in CRC calculations : YesUsed interface : Native Win32 interface for Win NT & 2000

Used output format : User Defined EncoderSelected bitrate : 1024 kBit/sQuality : HighAdd ID3 tag : NoCommand line compressor : H:\Tools\Exact Audio Copy\FLAC\FLAC.EXEAdditional command line options : -5 -V -T "ARTIST=%artist%" -T "ALBUM=%albumtitle%" -T "DATE=%year%" -T "TOTALDISCS=%totalcds%" -T "TOTALTRACKS=%numtracks%" -T "COMMENT=Exact Audio Copy, AccurateRip & CTDB, Flac Level 5" %source% -o %dest%

TOC of the extracted CD

Track | Start | Length | Start sector | End sector --------------------------------------------------------- 1 | 0:00.00 | 4:06.00 | 0 | 18449 2 | 4:06.00 | 4:04.48 | 18450 | 36797 3 | 8:10.48 | 5:41.30 | 36798 | 62402 4 | 13:52.03 | 1:33.22 | 62403 | 69399 5 | 15:25.25 | 4:02.30 | 69400 | 87579

Range status and errors

Selected range

Filename H:\Ripped discs by hjknight\ESCL-4598\ESCL-4598.wav

Peak level 99.2 % Extraction speed 5.6 X Range quality 100.0 % Copy CRC 93F81697 Copy OK

No errors occurred

AccurateRip summary

Track 1 not present in databaseTrack 2 not present in databaseTrack 3 not present in databaseTrack 4 not present in databaseTrack 5 not present in database

None of the tracks are present in the AccurateRip database

End of status report

---- CUETools DB Plugin V2.1.4

[CTDB TOCID: b_ft0OOHn8KaQ4BBtXx5MB_2Zf4-] disk not present in databaseSubmit result: 请求被中止: 请求已被取消。

==== Log checksum 028B46EFAB0172D2920AEBFC46BAB44D729895787A748A55DB17B78BBCC5F422 ====
</div>
</div>
Исполнитель: Galileo Galilei
Продолжительность: 11:20
Тип рипа: image+.cue
Треклист:

Climber
Bonnie to Clyde
She
Climber (TV Ver.)

<div class="sp-wrap">
<div class="sp-head folded">Лог проверки качества</div>
<div class="sp-body">

Exact Audio Copy V1.0 beta 3 from 29. August 2011

EAC extraction logfile from 26. December 2015, 19:32

Galileo Galilei / クライマー

Used drive : PIONEER BD-RW BDR-206 Adapter: 2 ID: 0

Read mode : SecureUtilize accurate stream : YesDefeat audio cache : YesMake use of C2 pointers : No

Read offset correction : 667Overread into Lead-In and Lead-Out : NoFill up missing offset samples with silence : YesDelete leading and trailing silent blocks : NoNull samples used in CRC calculations : YesUsed interface : Native Win32 interface for Win NT & 2000

Used output format : User Defined EncoderSelected bitrate : 1024 kBit/sQuality : HighAdd ID3 tag : NoCommand line compressor : H:\Tools\Exact Audio Copy\FLAC\FLAC.EXEAdditional command line options : -5 -V -T "ARTIST=%artist%" -T "ALBUM=%albumtitle%" -T "DATE=%year%" -T "TOTALDISCS=%totalcds%" -T "TOTALTRACKS=%numtracks%" -T "COMMENT=Exact Audio Copy, AccurateRip & CTDB, Flac Level 5" %source% -o %dest%

TOC of the extracted CD

Track | Start | Length | Start sector | End sector --------------------------------------------------------- 1 | 0:00.00 | 3:09.49 | 0 | 14223 2 | 3:09.49 | 4:37.47 | 14224 | 35045 3 | 7:47.21 | 2:03.34 | 35046 | 44304 4 | 9:50.55 | 1:29.20 | 44305 | 50999

Range status and errors

Selected range

Filename H:\Ripped discs by hjknight\SECL-1822\SECL-1822.wav

Peak level 100.0 % Extraction speed 5.0 X Range quality 100.0 % Copy CRC 111B2CC9 Copy OK

No errors occurred

AccurateRip summary

Track 1 not present in databaseTrack 2 not present in databaseTrack 3 not present in databaseTrack 4 not present in database

None of the tracks are present in the AccurateRip database

End of status report

---- CUETools DB Plugin V2.1.4

[CTDB TOCID: MuT3U7nSxQ9yB64SsEKDH2d0SbI-] foundSubmit result: MuT3U7nSxQ9yB64SsEKDH2d0SbI- has been confirmedTrack | CTDB Status 1 | (3/3) Accurately ripped 2 | (3/3) Accurately ripped 3 | (3/3) Accurately ripped 4 | (3/3) Accurately ripped

==== Log checksum 21E9D2E648B5B0F1AFB3C5E07BBE1EB1E6B3DC9B6B22BE348A41004DE3B17D1D ====
</div>
</div>
Исполнитель: tacica
Продолжительность: 8:21
Тип рипа: image+.cue
Треклист:

Hatsunetsu
510
Hatsunetsu (TV edit)

<div class="sp-wrap">
<div class="sp-head folded">Лог проверки качества</div>
<div class="sp-body">

Exact Audio Copy V1.0 beta 3 from 29. August 2011

EAC extraction logfile from 27. February 2016, 14:44

tacica / 発熱

Used drive : PIONEER BD-RW BDR-206 Adapter: 2 ID: 0

Read mode : SecureUtilize accurate stream : YesDefeat audio cache : YesMake use of C2 pointers : No

Read offset correction : 667Overread into Lead-In and Lead-Out : NoFill up missing offset samples with silence : YesDelete leading and trailing silent blocks : NoNull samples used in CRC calculations : YesUsed interface : Native Win32 interface for Win NT & 2000

Used output format : User Defined EncoderSelected bitrate : 1024 kBit/sQuality : HighAdd ID3 tag : NoCommand line compressor : H:\Tools\Exact Audio Copy\FLAC\FLAC.EXEAdditional command line options : -5 -V -T "ARTIST=%artist%" -T "ALBUM=%albumtitle%" -T "DATE=%year%" -T "TOTALDISCS=%totalcds%" -T "TOTALTRACKS=%numtracks%" -T "COMMENT=Exact Audio Copy, AccurateRip & CTDB, Flac Level 5" %source% -o %dest%

TOC of the extracted CD

Track | Start | Length | Start sector | End sector --------------------------------------------------------- 1 | 0:00.00 | 3:03.25 | 0 | 13749 2 | 3:03.25 | 3:46.38 | 13750 | 30737 3 | 6:49.63 | 1:31.15 | 30738 | 37577

Range status and errors

Selected range

Filename H:\Ripped discs by hjknight\SECL-1850\SECL-1850.wav

Peak level 100.0 % Extraction speed 4.9 X Range quality 100.0 % Copy CRC 4FC8E715 Copy OK

No errors occurred

AccurateRip summary

Track 1 not present in databaseTrack 2 not present in databaseTrack 3 not present in database

None of the tracks are present in the AccurateRip database

End of status report

---- CUETools DB Plugin V2.1.4

[CTDB TOCID: g5vYw9bTKbBorNsz8LmJKCfcH8Q-] disk not present in databaseSubmit result: g5vYw9bTKbBorNsz8LmJKCfcH8Q- has been uploaded

==== Log checksum 1DC6C91B8116BD0479395B8B274004296A2A82EB615D24149C02F0318B1C5547 ====
</div>
</div>
Исполнитель: Yuki Hayashi, Asami Tachibana
Продолжительность: 58:55
Тип рипа: image+.cue
Треклист:

Shinkokyuu
''Jou''
Ouja to no Taiji
Rettsugoutoukyou!!
Kimatsu Test
Aka Ten Gumi
Mane Chan Zu
Chokusha Nikkou
''Murabito B''
Saeko Neesan
Zasshoku
Nobi Shiro
[Yoku]
Ketsuretsu
Kuro No Team
Genkaku Hiirou
Riyuu
Tsuki no Izuru
Shudou Ken
Sai Kidou
Fukurou
Suika
Haguruma
Shiai Kaishi!!

<div class="sp-wrap">
<div class="sp-head folded">Лог проверки качества</div>
<div class="sp-body">

Exact Audio Copy V1.1 from 23. June 2015

EAC extraction logfile from 22. April 2016, 16:10

林ゆうき/橘麻美 / TVアニメ『ハイキュー!! セカンドシーズン』オリジナル・サウンドトラック VOL.1

Used drive : HL-DT-STDVDRW GS31N Adapter: 1 ID: 0

Read mode : SecureUtilize accurate stream : YesDefeat audio cache : YesMake use of C2 pointers : No

Read offset correction : 667Overread into Lead-In and Lead-Out : NoFill up missing offset samples with silence : YesDelete leading and trailing silent blocks : NoNull samples used in CRC calculations : YesUsed interface : Native Win32 interface for Win NT & 2000

Used output format : Internal WAV RoutinesSample format : 44.100 Hz; 16 Bit; Stereo

TOC of the extracted CD

Track | Start | Length | Start sector | End sector --------------------------------------------------------- 1 | 0:00.00 | 0:23.10 | 0 | 1734 2 | 0:23.10 | 4:01.06 | 1735 | 19815 3 | 4:24.16 | 2:33.32 | 19816 | 31322 4 | 6:57.48 | 3:48.40 | 31323 | 48462 5 | 10:46.13 | 2:15.01 | 48463 | 58588 6 | 13:01.14 | 2:38.71 | 58589 | 70509 7 | 15:40.10 | 1:55.02 | 70510 | 79136 8 | 17:35.12 | 2:04.20 | 79137 | 88456 9 | 19:39.32 | 2:00.23 | 88457 | 97479 10 | 21:39.55 | 1:49.58 | 97480 | 105712 11 | 23:29.38 | 2:39.02 | 105713 | 117639 12 | 26:08.40 | 2:25.30 | 117640 | 128544 13 | 28:33.70 | 3:31.00 | 128545 | 144369 14 | 32:04.70 | 2:47.19 | 144370 | 156913 15 | 34:52.14 | 1:55.64 | 156914 | 165602 16 | 36:48.03 | 2:19.67 | 165603 | 176094 17 | 39:07.70 | 2:32.15 | 176095 | 187509 18 | 41:40.10 | 2:09.25 | 187510 | 197209 19 | 43:49.35 | 2:09.35 | 197210 | 206919 20 | 45:58.70 | 2:55.32 | 206920 | 220076 21 | 48:54.27 | 1:57.42 | 220077 | 228893 22 | 50:51.69 | 2:02.01 | 228894 | 238044 23 | 52:53.70 | 3:19.65 | 238045 | 253034 24 | 56:13.60 | 2:40.65 | 253035 | 265099

Range status and errors

Selected range

Filename D:\THCA-60089.wav

Peak level 98.8 % Extraction speed 4.3 X Range quality 100.0 % Copy CRC 18B59E71 Copy OK

No errors occurred

End of status report

---- CUETools DB Plugin V2.1.6

[CTDB TOCID: wSqH0RWyTjHP9QWP.Xv66dF5pV4-] foundSubmit result: wSqH0RWyTjHP9QWP.Xv66dF5pV4- has been confirmedTrack | CTDB Status 1 | (4/4) Accurately ripped 2 | (4/4) Accurately ripped 3 | (4/4) Accurately ripped 4 | (4/4) Accurately ripped 5 | (4/4) Accurately ripped 6 | (4/4) Accurately ripped 7 | (4/4) Accurately ripped 8 | (4/4) Accurately ripped 9 | (4/4) Accurately ripped 10 | (4/4) Accurately ripped 11 | (4/4) Accurately ripped 12 | (4/4) Accurately ripped 13 | (4/4) Accurately ripped 14 | (4/4) Accurately ripped 15 | (4/4) Accurately ripped 16 | (4/4) Accurately ripped 17 | (4/4) Accurately ripped 18 | (4/4) Accurately ripped 19 | (4/4) Accurately ripped 20 | (4/4) Accurately ripped 21 | (4/4) Accurately ripped 22 | (4/4) Accurately ripped 23 | (4/4) Accurately ripped 24 | (4/4) Accurately ripped

==== Log checksum 6483574F6A72970AF9E70A9BDD13CD387DBCDF36BA912F33974C829D73082296 ====
</div>
</div>
Исполнитель: Yuki Hayashi, Asami Tachibana
Продолжительность: 54:28
Тип рипа: image+.cue
Треклист:

Youchou
Kaisen
Fusshoku
Chou Sokkou
Tomogara
Daikokubashira
Tsuyosa no Katachi
Chijousen
Asobiba
Konjou Nashi no Tatakai
Dodai Dairi
Koukai to Gendouryoku
Chiisana Kyojinsen
Haibokusha-tachi
Sainou to Sense
Kyokugen Switch
Kowashi-ya
Moto Konjou Nashi no Tatakai
Makkou Shoubu
Deai no Kagaku Henka
Sensen Fukoku

<div class="sp-wrap">
<div class="sp-head folded">Лог проверки качества</div>
<div class="sp-body">Exact Audio Copy V1.1 from 23. June 2015

EAC extraction logfile from 22. April 2016, 15:37

林ゆうき/橘麻美 / TVアニメ『ハイキュー!! セカンドシーズン』オリジナル・サウンドトラック VOL.2

Used drive : HL-DT-STDVDRW GS31N Adapter: 1 ID: 0

Read mode : Secure
Utilize accurate stream : Yes
Defeat audio cache : Yes
Make use of C2 pointers : No

Read offset correction : 667
Overread into Lead-In and Lead-Out : No
Fill up missing offset samples with silence : Yes
Delete leading and trailing silent blocks : No
Null samples used in CRC calculations : Yes
Used interface : Native Win32 interface for Win NT & 2000

Used output format : Internal WAV Routines
Sample format : 44.100 Hz; 16 Bit; Stereo

TOC of the extracted CD

Track | Start | Length | Start sector | End sector
---------------------------------------------------------
1 | 0:00.00 | 2:20.65 | 0 | 10564
2 | 2:20.65 | 2:05.63 | 10565 | 20002
3 | 4:26.53 | 2:17.48 | 20003 | 30325
4 | 6:44.26 | 3:21.04 | 30326 | 45404
5 | 10:05.30 | 1:43.25 | 45405 | 53154
6 | 11:48.55 | 2:30.30 | 53155 | 64434
7 | 14:19.10 | 2:22.41 | 64435 | 75125
8 | 16:41.51 | 2:09.03 | 75126 | 84803
9 | 18:50.54 | 2:04.30 | 84804 | 94133
10 | 20:55.09 | 2:02.21 | 94134 | 103304
11 | 22:57.30 | 2:41.44 | 103305 | 115423
12 | 25:38.74 | 3:20.48 | 115424 | 130471
13 | 28:59.47 | 2:22.12 | 130472 | 141133
14 | 31:21.59 | 2:27.42 | 141134 | 152200
15 | 33:49.26 | 2:37.61 | 152201 | 164036
16 | 36:27.12 | 2:42.19 | 164037 | 176205
17 | 39:09.31 | 2:12.26 | 176206 | 186131
18 | 41:21.57 | 3:39.56 | 186132 | 202612
19 | 45:01.38 | 2:56.47 | 202613 | 215859
20 | 47:58.10 | 2:46.67 | 215860 | 228376
21 | 50:45.02 | 3:43.23 | 228377 | 245124

Range status and errors

Selected range

Filename D:\THCA-60091.wav

Peak level 98.8 %
Extraction speed 4.2 X
Range quality 100.0 %
Copy CRC 5EF8CBA8
Copy OK

No errors occurred

End of status report

---- CUETools DB Plugin V2.1.6

[CTDB TOCID: Y.VpyuUz4Kl82vJ6JhOe4RQBp64-] disk not present in database
Submit result: 请求被中止: 请求已被取消。

==== Log checksum C77847876EE4175192BF990752937C27D16900700493E9CF8A4551CC2C8A4174 ====
</div>
</div>
Продолжительность: 22:10
Тип рипа: image+.cue
Треклист:

Track 1
Track 2
Track 3
Track 4

<div class="sp-wrap">
<div class="sp-head folded">Лог проверки качества</div>
<div class="sp-body">

AUDIOCHECKER v2.0 beta (build 457) - by Dester - opdester@freemail.hu~~~~~~~~~~~~~~~~~~~~~~~~~~~~~~~~~~-=== DO NOT EDIT THIS FILE! ===-

Path: ...\Tokuten CD Vol.1

1 -=- image.flac -=- CDDA (100%)

31769748
</div>
</div>
Продолжительность: 17:31
Тип рипа: image+.cue
Треклист:

Track 1
Track 2
Track 3
Track 4

<div class="sp-wrap">
<div class="sp-head folded">Лог проверки качества</div>
<div class="sp-body">

AUDIOCHECKER v2.0 beta (build 457) - by Dester - opdester@freemail.hu~~~~~~~~~~~~~~~~~~~~~~~~~~~~~~~~~~-=== DO NOT EDIT THIS FILE! ===-

Path: ...\Tokuten CD Vol.2

1 -=- image.flac -=- CDDA (100%)

31769748
</div>
</div>
Продолжительность: 20:13
Тип рипа: image+.cue
Треклист:

Track 1
Track 2
Track 3
Track 4

<div class="sp-wrap">
<div class="sp-head folded">Лог проверки качества</div>
<div class="sp-body">

AUDIOCHECKER v2.0 beta (build 457) - by Dester - opdester@freemail.hu~~~~~~~~~~~~~~~~~~~~~~~~~~~~~~~~~~-=== DO NOT EDIT THIS FILE! ===-

Path: ...\Tokuten CD Vol.3

1 -=- image.flac -=- CDDA (100%)

31769748
</div>
</div>
Продолжительность: 21:04
Тип рипа: image+.cue
Треклист:

Track 1
Track 2
Track 3
Track 4

<div class="sp-wrap">
<div class="sp-head folded">Лог проверки качества</div>
<div class="sp-body">

AUDIOCHECKER v2.0 beta (build 457) - by Dester - opdester@freemail.hu~~~~~~~~~~~~~~~~~~~~~~~~~~~~~~~~~~-=== DO NOT EDIT THIS FILE! ===-

Path: ...\Tokuten CD Vol.4

1 -=- image.flac -=- CDDA (100%)

31769748
</div>
</div>
Продолжительность: 18:38
Тип рипа: image+.cue
Треклист:

Track 1
Track 2
Track 3
Track 4

<div class="sp-wrap">
<div class="sp-head folded">Лог проверки качества</div>
<div class="sp-body">

AUDIOCHECKER v2.0 beta (build 457) - by Dester - opdester@freemail.hu~~~~~~~~~~~~~~~~~~~~~~~~~~~~~~~~~~-=== DO NOT EDIT THIS FILE! ===-

Path: ...\Tokuten CD Vol.5

1 -=- image.flac -=- CDDA (100%)

31769748
</div>
</div>
Продолжительность: 23:01
Тип рипа: image+.cue
Треклист:

Track 1
Track 2
Track 3
Track 4

<div class="sp-wrap">
<div class="sp-head folded">Лог проверки качества</div>
<div class="sp-body">

AUDIOCHECKER v2.0 beta (build 457) - by Dester - opdester@freemail.hu~~~~~~~~~~~~~~~~~~~~~~~~~~~~~~~~~~-=== DO NOT EDIT THIS FILE! ===-

Path: ...\Tokuten CD Vol.6

1 -=- image.flac -=- CDDA (100%)

31769748
</div>
</div>
Продолжительность: 7:11
Тип рипа: image+.cue
Треклист:

Track 1
Track 2
Track 3

<div class="sp-wrap">
<div class="sp-head folded">Лог проверки качества</div>
<div class="sp-body">

AUDIOCHECKER v2.0 beta (build 457) - by Dester - opdester@freemail.hu~~~~~~~~~~~~~~~~~~~~~~~~~~~~~~~~~~-=== DO NOT EDIT THIS FILE! ===-

Path: ...\Tokuten CD Vol.7

1 -=- image.flac -=- CDDA (100%)

31769748
</div>
</div>
Продолжительность: 9:05
Тип рипа: image+.cue
Треклист:

Track 1
Track 2
Track 3

<div class="sp-wrap">
<div class="sp-head folded">Лог проверки качества</div>
<div class="sp-body">

AUDIOCHECKER v2.0 beta (build 457) - by Dester - opdester@freemail.hu~~~~~~~~~~~~~~~~~~~~~~~~~~~~~~~~~~-=== DO NOT EDIT THIS FILE! ===-

Path: ...\Tokuten CD Vol.8

1 -=- image.flac -=- CDDA (99%)

152982964
</div>
</div>
Продолжительность: 8:41
Тип рипа: image+.cue
Треклист:

Track 1
Track 2
Track 3

<div class="sp-wrap">
<div class="sp-head folded">Лог проверки качества</div>
<div class="sp-body">

AUDIOCHECKER v2.0 beta (build 457) - by Dester - opdester@freemail.hu~~~~~~~~~~~~~~~~~~~~~~~~~~~~~~~~~~-=== DO NOT EDIT THIS FILE! ===-

Path: ...\Tokuten CD Vol.9

1 -=- image.flac -=- CDDA (100%)

31769748
</div>
</div>
</div>
</div>
<div class="sp-wrap">
<div class="sp-head folded">OP Single - Hikari Are</div>
<div class="sp-body">
Исполнитель: BURNOUT SYNDROMES
Продолжительность: 13:30
Тип рипа: image+.cue
Треклист:

Hikari Are
PIANOTUNE
Hikari Are [Anime Version]
Hikari Are [Instrumental]

<div class="sp-wrap">
<div class="sp-head folded">Лог проверки качества</div>
<div class="sp-body">

REM GENRE AnimeREM DATE 2016REM DISCID 2E032A04REM COMMENT "ExactAudioCopy v1.0b3"PERFORMER "BURNOUT SYNDROMES"TITLE "甲市伉失伊(場隙汜宴癹隅失瓦丟屜) "FILE "ESCL-4717.flac" WAVE TRACK 01 AUDIO TITLE "甲市伉失伊" PERFORMER "BURNOUT SYNDROMES" ISRC JPU901602724 INDEX 01 00:00:00 TRACK 02 AUDIO TITLE "PIANOTUNE" PERFORMER "BURNOUT SYNDROMES" ISRC JPU901602725 INDEX 00 04:02:15 INDEX 01 04:04:60 TRACK 03 AUDIO TITLE "甲市伉失伊 [失瓦丟田奈斥亦件]" PERFORMER "BURNOUT SYNDROMES" ISRC JPU901602726 INDEX 00 07:59:65 INDEX 01 08:04:35 TRACK 04 AUDIO TITLE "甲市伉失伊 [Instrumental]" PERFORMER "倱嗷睿漆" ISRC JPU901602727 INDEX 00 09:34:47 INDEX 01 09:39:17
</div>
</div>
Исполнитель: NICO Touches the Walls
Продолжительность: 12:55
Тип рипа: tracks
Треклист:

Mashi Mashi
MOROHA IROHA
Taiyou Shu ni Tsuka Ha Kokoro no Ryoute ni

<div class="sp-wrap">
<div class="sp-head folded">Спектры проверки качества</div>
<div class="sp-body">Данный альбом представлен в формате 24 bits/96kHz, поэтому проверка программой Audiochecker не представляется возможной. Приложены спектры для оценки качества.
</div>
</div>
Исполнитель: Yuki Hayashi, Asami Tachibana
Продолжительность: 48:20
Тип рипа: tracks
Треклист:

Volley wa!!! Tsuneni ue wo Muku Sport Da
Concept no Tatakai
Go Aisatsu
Kesshou Shoshinsha
GUESS MONSTER
Karasu no Shugoshin
Tsuki no wa
Risei to Chikara
Ikkan
Kodawari
Naguriai
Tantan
''Last Boss'' he no Michi
Iya na Otoko
Taka ga 1 Ten
Kibou
Ko VS Kazu
Shiratorizawa Gakuen Koukou Kouka
Stamina Shoubu
Hiru no Tsuki
Valley Baka Tachi
Tsugi no Tatakai

<div class="sp-wrap">
<div class="sp-head folded">Спектры проверки качества</div>
<div class="sp-body">Данный альбом представлен в формате 24 bits/48kHz, поэтому проверка программой Audiochecker не представляется возможной. Приложены спектры для оценки качества.
</div>
</div>
</div>
</div>
Продолжительность: 43:58
Тип рипа: tracks
Треклист:

Imagination - SPYAIR
Tenchi Gaeshi - NICO Touches the Walls
Ah Yeah!! - Sukima Switch
LEO - tacica
Catch the stars - Huwie Ishizaki
I'm a Believer - SPYAIR
Climber - Galileo Galilei
FLY HIGH!! - BURNOUT SYNDROMES
Hatsunetsu - tacica
Hikari Are - BURNOUT SYNDROMES
Mashi Mashi - NICO Touches the Walls

<div class="sp-wrap">
<div class="sp-head folded">Лог проверки качества</div>
<div class="sp-body">

AUDIOCHECKER v2.0 beta (build 457) - by Dester - opdester@freemail.hu~~~~~~~~~~~~~~~~~~~~~~~~~~~~~~~~~~-=== DO NOT EDIT THIS FILE! ===-

Path: ...\Haikyuu!! COMPLETE BEST

01 -=- 01 - Imagination.flac -=- CDDA (99%)02 -=- 02 - Tenchi Gaeshi.flac -=- CDDA (100%)03 -=- 03 - Ah Yeah!!.flac -=- CDDA (100%)04 -=- 04 - LEO.flac -=- CDDA (99%)05 -=- 05 - Catch the stars.flac -=- CDDA (100%)06 -=- 06 - I'm a Believer.flac -=- CDDA (100%)07 -=- 07 - Climber.flac -=- CDDA (100%)08 -=- 08 - FLY HIGH!!.flac -=- CDDA (100%)09 -=- 09 - Hatsunetsu.flac -=- CDDA (100%)10 -=- 10 - Hikari Are.flac -=- CDDA (100%)11 -=- 11 - Mashi Mashi.flac -=- CDDA (100%)

Summary 99,82% CDDA

233914436
</div>
</div>

Трекер:  [ 26-Июл-2017 06:12 ]

  

Скачать .torrent

Размер .torrent файла 33 KB


Размер: 4.03 GB
Хэш (hash) релиза: 9d12c4a565474e8df1e2cf355957fbaabd613c52

Торренты, похожие на Волейбол!! Haikyuu!! скачать торрент

Форум Название Автор Размер S L Добавлен
Саундтреки к аниме (mp3) ·· (OST) Волейбол!! / Haikyuu!! / Haikyu!! (ТВ 1, 2, 3) - 2014-2017 г., MP3 (tracks), 320 kbps (34CD) Galfimbul 18930183871.76 GB 0 0 1485104239

19:57

22-Янв-17

Саундтреки к аниме (mp3) ·· (OST) Волейбол!! / Haikyuu!! / Haikyu!! [TV 1, 2, 3] - 2014 - 2016 г., MP3 (tracks), 320 kbps [33CD] Galfimbul 17695066891.65 GB 0 0 1480616908

21:28

1-Дек-16

Саундтреки к аниме (mp3) ·· (OST) Волейбол!! / Haikyuu!! / Haikyu!! [TV 1, 2, 3] - 2014 - 2016 г., MP3 (tracks), 320 kbps [24CD] Galfimbul 14274711971.33 GB 0 0 1477426951

23:22

25-Окт-16

Саундтреки к аниме (mp3) ·· (OST) Волейбол!! / Haikyuu!! / Haikyu!! [TV 1, 2] - 2014 - 2016 г., MP3 (tracks), 320 kbps [23CD] Galfimbul 14079085891.31 GB 0 0 1477043029

12:43

21-Окт-16

Еще никто не оставлял запись к записи скачать торрент Волейбол!! Haikyuu!! . Будь первым!

!Обратная связь