Скачать через торрент WIXOSS: Селектор-разносчик бесплатно Аниме Все серии на русском torrent

Если у вас наблюдаются проблемы со скриншотами, переходом по ссылками, скачиванием торрентов - проблемы в блокировщике рекламы AdBlock. #хорошегоДня!


Статистика раздачи
Размер:  9.05 GB   |    Зарегистрирован:  4 месяца 21 день   |    .torrent скачан:  28 раз   |   
Раздают:  1  
   
Загрузка...
 
Автор Сообщение

Galfimbul

avatar Galfimbul


Год выпуска: 2014
Страна: Япония
Жанр: триллер, драма
Продолжительность: TV, 12 эп. по 25 мин.
Режиссер: Сато Такуя
Студия: J.C. Staff
Выпуск: с 04.10.2014 по 20.12.2014Описание:
Продолжение первого сезона. Мистическая карточная игра «WIXOSS» с каждым днем становится все более популярной среди девочек, однако лишь некоторым дано знать ее непростую тайну: ради исполнения своей заветной мечты они ставят на кон самую большую ставку — свою жизнь.
Руко глубоко переживает потерю своей LRIG Тамы. Осознав, насколько игра опасна, а ее правила и нюансы далеко не всегда понятны, девушка пытается вернуться к нормальной жизни. Но мысли о судьбах селекторов не дают ей покоя, а Иона, теперь уже LRIG Руко, рвется в бой...© 亜美ちゃん, Karma killer .Информационные ссылки: AniDB || World Art || MALКачество: BDRip
Автор рипа: VCB-Studio
Тип релиза: Без хардсаба; без линковки
Формат видео: MKV
Видео: HEVC(х265); 10 bit; 1920x1080; ~3000 Кбит/сек; 23.976 кадра/сек
Аудио: FLAC; 48kHz; 2 канала; ~1400 Кбит/сек; язык: японский
Субтитры: ASS; внешние; язык: русский; перевод: seiya.moe & AniPanic
Субтитры: переводчик: Seiya Loveless, оформление: DeadMouse
01. Молчаливо поднимающийся занавес
02. Беспокойная связь
03. Неожиданное воссоединение
04. Разбушевавшееся заблуждение
05. Раздражающее разочарование
06. Черное, как смоль существование
07. Ранящая ложь
08. Этот мир принадлежит мне
09. Неожиданное расставание
10. Ограниченная теплота
11. Закрытое окно
12. Выбор
shadowhand - BDRipMERDOK - BDRip
GeneralUnique ID : 193311876791492435567247300055635270468 (0x916E8361D9F220829B8A3BE36D6F1B44)Complete name : \Selector spread WIXOSS [BDRip 1080p HEVC FLAC]\[VCB-Studio] selector spread WIXOSS [01][Ma10p_1080p][x265_flac].mkvFormat : MatroskaFormat version : Version 4 / Version 2File size : 943 MiBDuration : 23 min 42 sOverall bit rate mode : VariableOverall bit rate : 5 562 kb/sEncoded date : UTC 2017-06-20 15:45:22Writing application : mkvmerge v12.0.0 ('Trust / Lust') 64bitWriting library : libebml v1.3.4 + libmatroska v1.4.5

VideoID : 1Format : HEVCFormat/Info : High Efficiency Video CodingFormat profile : Main 10@L4.1@HighCodec ID : V_MPEGH/ISO/HEVCDuration : 23 min 42 sBit rate : 4 138 kb/sWidth : 1 920 pixelsHeight : 1 080 pixelsDisplay aspect ratio : 16:9Frame rate mode : ConstantFrame rate : 23.976 (24000/1001) FPSColor space : YUVChroma subsampling : 4:2:0Bit depth : 10 bitsBits/(Pixel*Frame) : 0.083Stream size : 701 MiB (74%)Writing library : x265 2.3+1-7e225aefd389:[Windows][MSVC 1910][64 bit] 10bitEncoding settings : cpuid=1173503 / frame-threads=3 / numa-pools=12 / wpp / no-pmode / no-pme / no-psnr / no-ssim / log-level=2 / input-csp=1 / input-res=1920x1080 / interlace=0 / total-frames=0 / level-idc=0 / high-tier=1 / uhd-bd=0 / ref=4 / no-allow-non-conformance / no-repeat-headers / annexb / no-aud / no-hrd / info / hash=0 / no-temporal-layers / no-open-gop / min-keyint=1 / keyint=360 / bframes=6 / b-adapt=2 / b-pyramid / bframe-bias=0 / rc-lookahead=80 / lookahead-slices=4 / scenecut=40 / no-intra-refresh / ctu=32 / min-cu-size=8 / no-rect / no-amp / max-tu-size=32 / tu-inter-depth=2 / tu-intra-depth=2 / limit-tu=0 / rdoq-level=2 / dynamic-rd=0.00 / signhide / no-tskip / nr-intra=0 / nr-inter=0 / no-constrained-intra / no-strong-intra-smoothing / max-merge=3 / limit-refs=2 / limit-modes / me=3 / subme=3 / merange=44 / temporal-mvp / weightp / weightb / no-analyze-src-pics / deblock=-1:-1 / no-sao / no-sao-non-deblock / rd=4 / no-early-skip / rskip / no-fast-intra / no-tskip-fast / no-cu-lossless / b-intra / rdpenalty=0 / psy-rd=2.00 / psy-rdoq=1.00 / no-rd-refine / analysis-mode=0 / no-lossless / cbqpoffs=-3 / crqpoffs=-3 / rc=crf / crf=15.5 / qcomp=0.65 / qpstep=4 / stats-write=0 / stats-read=0 / vbv-maxrate=32000 / vbv-bufsize=35000 / vbv-init=0.9 / crf-max=0.0 / crf-min=0.0 / ipratio=1.40 / pbratio=1.20 / aq-mode=1 / aq-strength=0.90 / cutree / zone-count=0 / no-strict-cbr / qg-size=32 / no-rc-grain / qpmax=69 / qpmin=0 / sar=0 / overscan=0 / videoformat=5 / range=0 / colorprim=2 / transfer=2 / colormatrix=1 / chromaloc=0 / display-window=0 / max-cll=0,0 / min-luma=0 / max-luma=1023 / log2-max-poc-lsb=8 / vui-timing-info / vui-hrd-info / slices=1 / opt-qp-pps / opt-ref-list-length-pps / no-multi-pass-opt-rps / scenecut-bias=0.05 / no-opt-cu-delta-qp / no-aq-motion / no-hdrDefault : YesForced : NoColor range : LimitedMatrix coefficients : BT.709

AudioID : 2Format : FLACFormat/Info : Free Lossless Audio CodecCodec ID : A_FLACDuration : 23 min 42 sBit rate mode : VariableBit rate : 1 422 kb/sChannel(s) : 2 channelsChannel positions : Front: L RSampling rate : 48.0 kHzFrame rate : 11.719 FPS (4096 spf)Bit depth : 24 bitsStream size : 241 MiB (26%)Writing library : libFLAC 1.2.1 (UTC 2007-09-17)Language : JapaneseDefault : YesForced : No

Menu00:00:00.000 : en:Chapter 0100:02:28.022 : en:Chapter 0200:03:58.029 : en:Chapter 0300:10:25.082 : en:Chapter 0400:21:56.064 : en:Chapter 0500:23:26.071 : en:Chapter 06
Выбор видео, перевода, осуществляется релизером и не подлежит обсуждению. Если вы считаете, что раздаваемый материал противоречит правилам раздела "Аниме" rutracker.org, сообщите об этом одному из модераторов раздела.
Данный релиз предназначен для просмотра на ПК. Воспроизведение на иных проигрывателях не гарантируется.
Данный релиз содержит 10-битное видео (Hi10p). Для корректного воспроизведения обязательно используйте кодеки, поддерживающие 10-битное видео.
Обсудить проблемы с воспроизведением и получить дополнительную информацию можно здесь.
Данный релиз предназначен для просмотра с внешними субтитрами. Для просмотра с субтитрами нужно:

установить шрифты из папки "RUS Subs » Fonts";

скопировать файлы .ass из папки "RUS Subs" в одну папку с видео - плеер подгрузит их автоматически при открытии видео.

Если у вас возникли проблемы с просмотром, не связанные с описанным выше, сообщите о них автору раздачи посредством сообщения в теме или ЛС Horodep.


Трекер:  [ 27-Июл-2017 06:01 ]

  

Скачать .torrent

Размер .torrent файла 49 KB


Размер: 9.05 GB
Хэш (hash) релиза: 5f52a5b0b0355d2606b134669d45f0434ec308fa
Подписка на обновления:

Еще никто не оставлял запись к записи скачать торрент WIXOSS: Селектор-разносчик . Будь первым!

!Обратная связь