Скачать через торрент Мастер Суждения Mr. Destiny Фильм бесплатно в хорошем качестве torrent

Скачивайте на UnionPeer.org фильмы через торрент без регистрации. Новинки кино в хорошем качестве через торрент. На UnionPeer.org можно скачать через торрент фильмы 2014 и 2015 годов. Самые новые фильмы.

Скачать торрент Мастер Суждения Mr. Destiny бесплатно через .torrent фильм мультфильм сериал

Если у вас наблюдаются проблемы со скриншотами, переходом по ссылками, скачиванием торрентов - проблемы в блокировщике рекламы AdBlock. #хорошегоДня!


Статистика раздачи
Размер:  1.25 GB   |    Зарегистрирован:  4 месяца 19 дней   |    .torrent скачан:  39 раз   |   
Раздают:  1  
   
Загрузка...
 
Автор Сообщение

Galfimbul

avatar Galfimbul


Мастер Суждения / Mr. Destiny

Дата/Год выпуска: 1990
Страна: США
Жанр: комедия, приключения, прикольный перевод
Продолжительность: 01:45:48
Перевод: Авторский (одноголосый закадровый) alpok
Русские субтитры: нет

Оригинальная аудиодорожка: нет
Режиссер: Джеймс Орр

Описание: Представьте себе, что в один прекрасный день самый заурядный, примитивный, считающий себя телом гуманоид – в саентологической терминологии “вог” – вдруг станет продвинутым саентологом , а все окружающие его бывшие саентологи окажутся вогами! Именно это произошло с Ларри Бэрроузом, и причиной этого стало то, что он применил – пусть и не осознавая этого – мощнейшую технологию под названием Суждение. Мир вокруг него полностью изменился. Но разве сердце можно изменить? Как быть, если женщина, которую ты, оказывается, очень любил, теперь замужем за другим? Может, взять и применить к ней Суждение?

Доп. информация:
Первое Важное замечание!
Если раньше Саентологическая терминология была, так сказать, главным блюдом, то в этом фильме она играет роль своеобразной пикантной приправы. Надеюсь, такое перераспределение ролей придется по вкусу и искушенному, и не очень искушенному зрителю.
Второе Важное замечание!
Общепринятым является мнение, что работа со словарем – не самая увлекательная вещь. Действительно, что может быть скучнее, чем прояснять слова или искать определения тех или иных терминов? А уж если речь идет о таких заумных терминах, как Саентологические – это караул! Но, оказывается, работа со словарем может быть очень даже веселым делом, если определения слов в нем даются юмористические. Вот я и решил поступить так же со словарем, который обычно прилагаю к своим фильмам. И на Ваш суд и в помощь Вам предлагается Краткий Юмористический Словарь Саентологических Терминов. И хотя определения слов в нем юмористические, но суть понятий они передают точно. Я очень советую перед просмотром фильма если не прочитать, то хотя бы полистать этот словарь. Надеюсь, это поднимет Вам настроение, а заодно поможет Вам в полной мере прочувствовать атмосферу фильма.

Для просмотра рекомендуется VLC media player.

Сэмпл: http://sendfile.su/1351577

качество: DVDRip
формат: AVI
Видео: 720x400 (1.8:1), 25.000 fps, Xvid ~1550 kbps avg, 0.215 bit/pixel
Аудио: 44.100 kHz, MPEG Layer 3, 2 ch, ~128.00 kbps avg
ОбщееПолное имя : D:\Master_Suzhdenia_rutracker_org\Master_Suzhdenia\Master_Suzhdenia_(by_alpok).aviФормат : AVIФормат/Информация : Audio Video InterleaveРазмер файла : 1,25 ГбайтПродолжительность : 1 ч. 45 м.Общий поток : 1683 Кбит/секПрограмма кодирования : VirtualDubMod 1.5.10.2 (build 2542/release)Библиотека кодирования : VirtualDubMod build 2542/release

ВидеоИдентификатор : 0Формат : MPEG-4 VisualПрофиль формата : Advanced Simple@L5Параметр BVOP формата : 2Параметр QPel формата : НетПараметр GMC формата : Без точки переходаПараметр матрицы формата : Default (MPEG)Идентификатор кодека : XVIDИдентификатор кодека/Подсказка : XviDПродолжительность : 1 ч. 45 м.Битрейт : 1545 Кбит/секШирина : 720 пикселейВысота : 400 пикселейСоотношение сторон : 16:9Частота кадров : 25,000 кадров/секЦветовое пространство : YUVСубдискретизация насыщенности : 4:2:0Битовая глубина : 8 битТип развёртки : ПрогрессивнаяМетод сжатия : С потерямиБит/(Пиксели*Кадры) : 0.215Размер потока : 1,14 Гбайт (92%)Библиотека кодирования : XviD 64

АудиоИдентификатор : 1Формат : MPEG AudioВерсия формата : Version 1Профиль формата : Layer 3Режим : Joint stereoРасширение режима : MS StereoИдентификатор кодека : 55Идентификатор кодека/Подсказка : MP3Продолжительность : 1 ч. 45 м.Вид битрейта : ПостоянныйБитрейт : 128 Кбит/секКаналы : 2 каналаЧастота : 44,1 КГцМетод сжатия : С потерямиРазмер потока : 97,0 Мбайт (8%)Выравнивание : Разделение по промежуткамПродолжительность промежутка : 40 мс. (1,00 видеокадр)Время предзагрузки промежутка : 500 мс.


Трекер:  [ 27-Июл-2017 23:12 ]

  

Скачать .torrent

Размер .torrent файла 13 KB


Размер: 1.25 GB
Хэш (hash) релиза: 7081621b100b9ea9f2a7726cfbdd5eaf901031ab
Подписка на обновления:

Еще никто не оставлял запись к записи скачать торрент Мастер Суждения Mr. Destiny . Будь первым!

!Обратная связь