Скачать через торрент музыку Vangelis - Chariots Of Fire Огненная колесница бесплатно без регистрации torrent

Если у вас наблюдаются проблемы со скриншотами, переходом по ссылками, скачиванием торрентов - проблемы в блокировщике рекламы AdBlock. #хорошегоДня!


Статистика раздачи
Размер:  189 MB   |    Зарегистрирован:  4 месяца 17 дней   |    .torrent скачан:  20 раз   |   
Раздают:  1  
   
Загрузка...
 
Автор Сообщение

Galfimbul

avatar Galfimbul


Chariots Of Fire / Огненная колесница

Название альбома: Chariots Of Fire
Жанр: Score
Композитор: Vangelis
Год выпуска диска: 1983
Год выпуска фильма: 1981

Страна-производитель диска: West Germany
Издатель (лейбл): Polydor
Номер по каталогу: 800 020-2
Аудиокодек: FLAC (*.flac)
Тип рипа: image+.cue
Битрейт аудио: lossless
Продолжительность: 00:42:09

Источник: собственный рип
Наличие сканов в содержимом раздачи: нет

Треклист:
01. Titles [0:03:34.18]
02. Fire Circles [0:05:21.32]
03. Abraham's Theme [0:03:21.00]
04. Eric's Theme [0:04:18.43]
05. 100 Metres [0:02:04.47]
06. Jerusalem [0:02:47.28]
07. Chariots Of Fire [0:20:41.20]
Exact Audio Copy V1.0 beta 4 from 7. December 2014

EAC extraction logfile from 29. July 2017, 19:32

Vangelis / Chariots Of Fire

Used drive : MATSHITABD-CMB UJ172 S Adapter: 1 ID: 0

Read mode : SecureUtilize accurate stream : YesDefeat audio cache : YesMake use of C2 pointers : No

Read offset correction : 103Overread into Lead-In and Lead-Out : NoFill up missing offset samples with silence : YesDelete leading and trailing silent blocks : NoNull samples used in CRC calculations : YesUsed interface : Native Win32 interface for Win NT & 2000

Used output format : User Defined EncoderSelected bitrate : 768 kBit/sQuality : HighAdd ID3 tag : NoCommand line compressor : C:\Program Files (x86)\Exact Audio Copy\Flac\flac.exeAdditional command line options : -7 -V -T "Date=%year%" -T "Genre=%genre%" -T "COMMENT=ripped by sewerok®" %source%

TOC of the extracted CD

Track | Start | Length | Start sector | End sector --------------------------------------------------------- 1 | 0:00.32 | 3:34.18 | 32 | 16099 2 | 3:34.50 | 5:21.32 | 16100 | 40206 3 | 8:56.07 | 3:21.00 | 40207 | 55281 4 | 12:17.07 | 4:18.43 | 55282 | 74674 5 | 16:35.50 | 2:04.47 | 74675 | 84021 6 | 18:40.22 | 2:47.28 | 84022 | 96574 7 | 21:27.50 | 20:41.20 | 96575 | 189669

Range status and errors

Selected range

Filename E:\Vangelis - Chariots Of Fire [1981](Polydor 800 020-2 West Germany)\Vangelis - Chariots Of Fire.wav

Peak level 77.6 % Extraction speed 3.8 X Range quality 100.0 % Test CRC 50B1E433 Copy CRC 50B1E433 Copy OK

No errors occurred

AccurateRip summary

Track 1 accurately ripped (confidence 120) [43164A96] (AR v2)Track 2 accurately ripped (confidence 122) [A25ACC80] (AR v2)Track 3 accurately ripped (confidence 122) [113020C0] (AR v2)Track 4 accurately ripped (confidence 121) [5F53B61F] (AR v2)Track 5 accurately ripped (confidence 123) [6600714C] (AR v2)Track 6 accurately ripped (confidence 122) [3AA17195] (AR v2)Track 7 accurately ripped (confidence 119) [CD3FBFD2] (AR v2)

All tracks accurately ripped

End of status report

---- CUETools DB Plugin V2.1.5

[CTDB TOCID: UexqoX3Oldea3ZgYdEoPS7lGPmc-] foundSubmit result: UexqoX3Oldea3ZgYdEoPS7lGPmc- has been confirmedTrack | CTDB Status 1 | (106/109) Accurately ripped 2 | (107/109) Accurately ripped 3 | (107/109) Accurately ripped 4 | (106/109) Accurately ripped 5 | (107/109) Accurately ripped 6 | (107/109) Accurately ripped 7 | (106/109) Accurately ripped

==== Log checksum 80D17AF2F690290403A505AC395721262BBF24995477F03672DDBDA69B7D002D ====
[CUETools log; Date: 29.07.2017 19:33:32; Version: 2.1.5]Pregap length 00:00:32.[CTDB TOCID: UexqoX3Oldea3ZgYdEoPS7lGPmc-] found.Track | CTDB Status 1 | (107/110) Accurately ripped 2 | (108/110) Accurately ripped 3 | (108/110) Accurately ripped 4 | (107/110) Accurately ripped 5 | (108/110) Accurately ripped 6 | (108/110) Accurately ripped 7 | (107/110) Accurately ripped[AccurateRip ID: 00087e13-00349089-6109e007] found.Track [ CRC | V2 ] Status 01 [74c8da8a|43164a96] (088+120/208) Accurately ripped 02 [32edb80e|a25acc80] (087+122/209) Accurately ripped 03 [75b33879|113020c0] (088+122/210) Accurately ripped 04 [ce4cd141|5f53b61f] (088+121/209) Accurately ripped 05 [809e5cdc|6600714c] (088+123/211) Accurately ripped 06 [493b26f0|3aa17195] (089+122/211) Accurately ripped 07 [d9a8ee0f|cd3fbfd2] (079+119/198) Accurately rippedOffsetted by -283: 01 [3d35ea25] (000/208) No match (V2 was not tested) 02 [6d4ffe26] (000/209) No match (V2 was not tested) 03 [ea74c3ab] (000/210) No match (V2 was not tested) 04 [935cc233] (000/209) No match (V2 was not tested) 05 [d12addc4] (000/211) No match (V2 was not tested) 06 [61d370d2] (000/211) No match (V2 was not tested) 07 [2114822d] (000/198) No match (V2 was not tested)

Track Peak [ CRC32 ] [W/O NULL] [ LOG ] -- 77,6 [50B1E433] [F1ABABE0] CRC32 01 73,7 [8CC224A5] [2D085036] 02 56,7 [DE8BFCF6] [0CEA0084] 03 47,7 [7966A5E6] [57A67795] 04 63,1 [A490D693] [78D7F81B] 05 44,7 [7E122C65] [D0B720EB] 06 47,4 [4F69F9DE] [CE174201] 07 77,6 [384B20CD] [8E906B33]


Трекер:  [ 29-Июл-2017 20:36 ]

  

Скачать .torrent

Размер .torrent файла 15 KB


Размер: 189 MB
Хэш (hash) релиза: 90f78dffefb9b345a643d1072d71e278a96aa0fd

Торренты, похожие на Vangelis - Chariots Of Fire Огненная колесница скачать торрент

Форум Название Автор Размер S L Добавлен
Саундтреки к фильмам и мультфильмам (lossless) ·· (Score/New Age) Vangelis - Chariots Of Fire / Огненная колесница (MFSL Ultradisc II) - 2000 (1981), FLAC (image+.cue), lossless Galfimbul 193777027185 MB 0 0 1292268987

22:36

13-Дек-10

Саундтреки к фильмам и мультфильмам (lossless) ·· (Score) Chariots Of Fire / Огненные колесницы [25th Anniversary Edition Digitally Remastered] (by Vangelis) - 2006 (1981), APE (image+.cue) lossless Galfimbul 217045976207 MB 0 0 1292270187

22:56

13-Дек-10

Еще никто не оставлял запись к записи скачать торрент Vangelis - Chariots Of Fire Огненная колесница . Будь первым!

!Обратная связь