Скачать через торрент Рик и Морти Rick and Morty Фильм бесплатно в хорошем качестве torrent

Скачивайте на UnionPeer.org фильмы через торрент без регистрации. Новинки кино в хорошем качестве через торрент. На UnionPeer.org можно скачать через торрент фильмы 2014 и 2015 годов. Самые новые фильмы.

Скачать торрент Рик и Морти Rick and Morty бесплатно через .torrent фильм мультфильм сериал

Если у вас наблюдаются проблемы со скриншотами, переходом по ссылками, скачиванием торрентов - проблемы в блокировщике рекламы AdBlock. #хорошегоДня!


Статистика раздачи
Размер:  188 MB   |    Зарегистрирован:  4 месяца 15 дней   |    .torrent скачан:  82 раза   |   
Раздают:  1  
   
Загрузка...
 
Автор Сообщение

Galfimbul

avatar Galfimbul


Рик и Морти / Rick and Morty

Страна: США
Жанр: комедия, фантастика
Продолжительность серии: ~ 22 мин.
Год выпуска: 2017
Перевод: Студийный (одноголосый закадровый) Сыендук
Русские субтитры: нет

Режиссёр: Пит Мишелс, Брайан Ньютон, Джон Райс
Роли озвучивали: Джастин Ройланд, Крис Парнелл, Спенсер Грэммер, Сара Чок, Кари Уолгрен, Райан Ридли, Том Кенни, Морис ЛаМарш, Фил Хендри, Брэндон Джонсон и др.

Описание: В центре сюжета обычный школьник по имени Морти и его не совсем вменяемый дедушка Рик, который очень любит выпить. Морти — самый обычный мальчик, и ничем не отличается от своих сверстников. А вот его дедуля занимается необычными научными исследованиями, и зачастую полностью неадекватен. Он может в любое время дня и ночи схватить внука и отправиться вместе с ним в межпространственные приключения с помощью построенной из разного хлама летающей тарелки, которая способна перемещаться сквозь временной туннель. Каждый раз эта парочка оказывается в самых неожиданных местах, из-за чего очень часто дед и внук оказываются в нелепых и непредвиденных ситуациях. Родители мальчика далеко не в восторге от выходок Рика, и пытаются доказать ему, что он поступает неправильно. Однако несмотря ни на что, Морти и пожилой ученый каждый раз отправляются в очередное путешествие, где их ждут новые невероятные приключения…

Список серий:
1. "The Rickshank Rickdemption".
2. "Rickmancing the Stone".

Доп. информация: Озвучка Сыендук

Качество: SATRip
Формат: MP4
Видео: MPEG-4 1280x720, 16:9, 30.296 FPS, bit rate : 581 kb/s
Аудио: AAC 22.05 kHz 2 channels 64.0 kb/s
Субтитры: отсутствуют
Format : MPEG-4Format profile : Base MediaCodec ID : isom (isom/iso2/avc1/mp41)File size : 94.6 MiBDuration : 22 min 46 sOverall bit rate : 581 kb/sRecorded date : 0Writing application : Lavf56.36.100Cover : Yes

VideoID : 1Format : AVCFormat/Info : Advanced Video CodecFormat profile : Baseline@L1.3Format settings, CABAC : NoFormat settings, ReFrames : 2 framesCodec ID : avc1Codec ID/Info : Advanced Video CodingDuration : 22 min 46 sBit rate : 512 kb/sWidth : 1 280 pixelsHeight : 720 pixelsDisplay aspect ratio : 16:9Frame rate mode : ConstantFrame rate : 30.296 FPSColor space : YUVChroma subsampling : 4:2:0Bit depth : 8 bitsScan type : ProgressiveBits/(Pixel*Frame) : 0.018Stream size : 83.4 MiB (88%)Writing library : x264 core 148 r2579 73ae2d1Encoding settings : cabac=0 / ref=2 / deblock=1:0:0 / analyse=0x1:0x111 / me=umh / subme=6 / psy=1 / psy_rd=1.00:0.00 / mixed_ref=1 / me_range=16 / chroma_me=1 / trellis=0 / 8x8dct=0 / cqm=0 / deadzone=21,11 / fast_pskip=1 / chroma_qp_offset=-2 / threads=8 / lookahead_threads=1 / sliced_threads=0 / nr=0 / decimate=1 / interlaced=0 / bluray_compat=0 / constrained_intra=0 / bframes=0 / weightp=0 / keyint=250 / keyint_min=25 / scenecut=40 / intra_refresh=0 / rc_lookahead=40 / rc=2pass / mbtree=1 / bitrate=512 / ratetol=1.0 / qcomp=0.60 / qpmin=0 / qpmax=69 / qpstep=4 / cplxblur=20.0 / qblur=0.5 / ip_ratio=1.40 / aq=1:1.00

AudioID : 2Format : AACFormat/Info : Advanced Audio CodecFormat profile : LCCodec ID : 40Duration : 22 min 46 sDuration_LastFrame : -45 msBit rate mode : ConstantBit rate : 64.0 kb/sChannel(s) : 2 channelsChannel positions : Front: L RSampling rate : 22.05 kHzFrame rate : 21.533 FPS (1024 spf)Compression mode : LossyStream size : 10.4 MiB (11%)Default : YesAlternate group : 1


Трекер:  [ 31-Июл-2017 23:24 ]

  

Скачать .torrent

Размер .torrent файла 15 KB


Размер: 188 MB
Хэш (hash) релиза: d4ff385314f85059d39fa123909e8e63e9b31883
Подписка на обновления:

Торренты, похожие на Рик и Морти Rick and Morty скачать торрент

Форум Название Автор Размер S L Добавлен
Мультсериалы ·· Рик и Морти / Rick and Morty / Сезон: 3 / Серии: 1-2 из 10 (Пит Мишелс, Брайан Ньютон, Джон Райс) [2017, США, комедия, фантастика, HDTVRip] Rus Sub Galfimbul 1022005464975 MB 0 0 1501491716

12:01

31-Июл-17

Еще никто не оставлял запись к записи скачать торрент Рик и Морти Rick and Morty . Будь первым!

!Обратная связь