Скачать через торрент Счастье по контракту Фильм бесплатно в хорошем качестве torrent

Скачивайте на UnionPeer.org фильмы через торрент без регистрации. Новинки кино в хорошем качестве через торрент. На UnionPeer.org можно скачать через торрент фильмы 2014 и 2015 годов. Самые новые фильмы.

Скачать торрент Счастье по контракту бесплатно через .torrent фильм мультфильм сериал

Если у вас наблюдаются проблемы со скриншотами, переходом по ссылками, скачиванием торрентов - проблемы в блокировщике рекламы AdBlock. #хорошегоДня!


Статистика раздачи
Размер:  1.37 GB   |    Зарегистрирован:  4 месяца 15 дней   |    .torrent скачан:  36 раз   |   
Раздают:  1  
   
Загрузка...
 
Автор Сообщение

Galfimbul

avatar Galfimbul


Счастье по контракту

Жанр: мелодрама, комедия
Год выпуска: 2010
Продолжительность: 1:27:29

Режиссёр: Владислав Николаев

В ролях: Сергей Жигунов, Ксения Лаврова-Глинка, Андрей Ильин, Александр Песков, Александр Яцко, Елена Валюшкина, Александра Флоринская, Сергей Габриэлян, Лариса Лужина, Александр Сигуев, Игорь Золотовицкий, Марина Гайзидорская, Владимир Тягичев, Оксана Кутузова, Наталья Тищенко, Юлия Полынская, Василий Брыков, Игорь Белов, Сергей Климов, Александра Шевченко, Оксана Жеребцова, Борис Тарасов, Евгений Стулов, Жора Тарасов, Игорь Дёмин

Описание: Азартного холостяка друзья заковывают в полугодовые условно брачные узы, но у фиктивного мужа и у фиктивной жены тузов в рукавах оказывается поровну...

Сэмпл: http://multi-up.com/1163445



Качество видео: SATRip
Формат видео: AVI

Видео: XviD, 688x384, 1.79:1, 25 fps, 2036 kbps, 0.308 bpp
Аудио: AC3, 48 kHz, 192 kbps, stereo
Complete name : P:\Счастье по контракту (2010) SATRip.avi
Format : AVI
Format/Info : Audio Video Interleave
File size : 1.37 GiB
Duration : 1h 27mn
Overall bit rate : 2 238 Kbps
Writing application : VirtualDubMod 1.5.10.2 (build 2540/release)
Writing library : VirtualDubMod build 2540/release

Video
ID : 0
Format : MPEG-4 Visual
Format profile : Advanced Simple@L5
Format settings, BVOP : 2
Format settings, QPel : No
Format settings, GMC : No warppoints
Format settings, Matrix : Default (H.263)
Codec ID : XVID
Codec ID/Hint : XviD
Duration : 1h 27mn
Bit rate : 2 036 Kbps
Width : 688 pixels
Height : 384 pixels
Display aspect ratio : 16:9
Frame rate : 25.000 fps
Color space : YUV
Chroma subsampling : 4:2:0
Bit depth : 8 bits
Scan type : Progressive
Compression mode : Lossy
Bits/(Pixel*Frame) : 0.308
Stream size : 1.24 GiB (91%)
Writing library : XviD 1.1.2 (UTC 2006-11-01)

Audio
ID : 1
Format : AC-3
Format/Info : Audio Coding 3
Mode extension : CM (complete main)
Format settings, Endianness : Big
Codec ID : 2000
Duration : 1h 27mn
Bit rate mode : Constant
Bit rate : 192 Kbps
Channel(s) : 2 channels
Channel positions : Front: L R
Sampling rate : 48.0 KHz
Bit depth : 16 bits
Compression mode : Lossy
Stream size : 120 MiB (9%)
Alignment : Split accross interleaves
Interleave, duration : 40 ms (1.00 video frame)
Interleave, preload duration : 500 ms
В существующей раздаче меньше наполнение кадра, хуже разрешение и небольшая рассинхронизация, но лучше устранение чересстрочности, полные титры и отсутствие послерекламных стыков, т.е. ощущение, что изначально снятый на древнюю аналоговую чересстрочную камеру оригинал кто-то скинул на VHS, потому что сам канал, и поныне вещающий в чересстрочном режиме, зачем-то сразу слил фильм в прогрессивный режим, причём, самым примитивным и вандальным фильтром чересстрочности "blend", и с тех пор так и показывает его.


Трекер:  [ 01-Авг-2017 05:24 ]

  

Скачать .torrent

Размер .torrent файла 14 KB


Размер: 1.37 GB
Хэш (hash) релиза: e65f39f456aea0f19a1cc7df9aad5c0d6f78733b
Подписка на обновления:

Еще никто не оставлял запись к записи скачать торрент Счастье по контракту . Будь первым!

!Обратная связь