Скачать через торрент История Осаму Тезуки: Я — Сон Гоку Tezuka Osamu Monogatari: Boku wa Son Gokuu бесплатно Аниме Все серии на русском torrent

Если у вас наблюдаются проблемы со скриншотами, переходом по ссылками, скачиванием торрентов - проблемы в блокировщике рекламы AdBlock. #хорошегоДня!


Статистика раздачи
Размер:  9.64 GB   |    Зарегистрирован:  4 месяца 13 дней   |    .torrent скачан:  27 раз   |   
Раздают:  1  
   
Загрузка...
 
Автор Сообщение

Galfimbul

avatar Galfimbul


Год выпуска: 1989
Страна: Япония
Жанр: приключения, фэнтези
Продолжительность: Special, 69 мин.
Режиссер: Ринтаро
Студия: Tezuka Production
Выпуск: 27.08.1989Описание:
История повествует о жизни мангаки Осаму Тэдзуки, который внёс значительный вклад в дело становления манги и аниме. История затрагивает детство мангаки, а так же военные годы, но не стоит воспринимать её как биографию — многое происходит всего лишь в воображении главного героя.Информационные ссылки: AniDB || World Art || MALКачество: BDRip
Автор рипа: Mulder [Beatrice-Raws]
Тип релиза: Без хардсаба; без линковки; с главами
Формат видео: MKV
Видео: MPEG4(х264); 10 bit; 1436x1080; ~19,1 Мбит/сек; 23.976 кадра/сек
Аудио: FLAC L8; 48kHz; 2 канала; ~617 Кбит/сек; язык: японский
Субтитры 1: ASS; внешние; язык: русский; перевод: Lady_Candy
Субтитры 2: ASS; вшитые; язык: английский; перевод: Orphan
GeneralUnique ID : 229208762267497980604189646347520346982 (0xAC70007AFDA646B28B9B113E5E568B66)Complete name : \Tezuka Osamu Monogatari - Boku wa Son Gokuu [BDRip 1080p x264 FLAC]\[Beatrice] Tezuka Osamu Monogatari Boku wa Son Gokuu [BDRip 1436x1080 x264 FLAC].mkvFormat : MatroskaFormat version : Version 4 / Version 2File size : 9.63 GiBDuration : 1 h 9 minOverall bit rate mode : VariableOverall bit rate : 19.7 Mb/sEncoded date : UTC 2017-07-24 14:32:53Writing application : mkvmerge v13.0.0 ('The Juggler') 64bitWriting library : libebml v1.3.4 + libmatroska v1.4.5Attachments : antrf.ttf / A-OTF-GothicMB101Pr5-Heavy.otf / A-OTF-GothicMB101Pr5-Ultra.otf / A-OTF-NtodayStd-DeBold-KS.otf / A-OTF-ShinGoPr5-Ultra.otf / APJFK-AnoHana.ttf / coolvetica rg.ttf / CronosPro-Bold.otf / CronosPro-BoldIt.otf / Deathe Maach NCV.ttf / FirecatMedium.ttf / Josschrift.ttf / Kozuka Mincho Pro H.ttf / LB-round R.ttf / Martina.ttf / RutmerHand.ttf / Simply Mono.ttf

VideoID : 1Format : AVCFormat/Info : Advanced Video CodecFormat profile : High 10@L5Format settings, CABAC : YesFormat settings, ReFrames : 4 framesCodec ID : V_MPEG4/ISO/AVCDuration : 1 h 9 minBit rate : 19.1 Mb/sWidth : 1 436 pixelsHeight : 1 080 pixelsDisplay aspect ratio : 4:3Frame rate mode : ConstantFrame rate : 23.976 (24000/1001) FPSColor space : YUVChroma subsampling : 4:2:0Bit depth : 10 bitsScan type : ProgressiveBits/(Pixel*Frame) : 0.513Stream size : 9.31 GiB (97%)Title : BDRip by MulderWriting library : x264 core 152 r2851M ba24899 (DJATOM's build)Encoding settings : cabac=1 / ref=4 / deblock=1:1:-2 / analyse=0x3:0x113 / me=umh / subme=9 / psy=1 / psy_rd=1.00:0.00 / mixed_ref=1 / me_range=32 / chroma_me=1 / trellis=2 / 8x8dct=1 / cqm=0 / deadzone=21,11 / fast_pskip=1 / chroma_qp_offset=-2 / threads=12 / lookahead_threads=2 / sliced_threads=0 / nr=0 / decimate=1 / interlaced=0 / bluray_compat=0 / constrained_intra=0 / bframes=9 / b_pyramid=2 / b_adapt=2 / b_bias=0 / direct=1 / weightb=1 / open_gop=0 / weightp=2 / keyint=250 / keyint_min=23 / scenecut=40 / intra_refresh=0 / rc=crf / mbtree=0 / crf=17.0000 / qcomp=0.72 / qpmin=0 / qpmax=81 / qpstep=4 / ip_ratio=1.40 / pb_ratio=1.30 / aq=1:0.85Language : JapaneseDefault : YesForced : NoColor range : LimitedColor primaries : BT.709Transfer characteristics : BT.709Matrix coefficients : BT.709

AudioID : 2Format : FLACFormat/Info : Free Lossless Audio CodecCodec ID : A_FLACDuration : 1 h 9 minBit rate mode : VariableBit rate : 617 kb/sChannel(s) : 2 channelsChannel positions : Front: L RSampling rate : 48.0 kHzFrame rate : 11.719 FPS (4096 spf)Bit depth : 16 bitsStream size : 309 MiB (3%)Title : LPCM->FLACWriting library : libFLAC 1.2.1 (UTC 2007-09-17)Language : JapaneseDefault : YesForced : No

TextID : 3Format : ASSCodec ID : S_TEXT/ASSCodec ID/Info : Advanced Sub Station AlphaDuration : 1 h 9 minBit rate : 1 617 b/sCount of elements : 6823Compression mode : LosslessStream size : 828 KiB (0%)Title : English [Orphan]Language : EnglishDefault : YesForced : No

Menu00:00:00.000 : en:Prologue00:01:19.470 : :Opening Credits00:02:09.270 : en:At the Movies00:07:52.700 : en:First Steps00:16:05.570 : en:The War00:24:46.920 : en:195900:30:19.570 : en:"I am Son Gokuu"01:05:53.720 : en:Epilogue01:07:36.740 : en:Ending Credits and Song
Выбор видео, перевода, осуществляется релизером и не подлежит обсуждению. Если вы считаете, что раздаваемый материал противоречит правилам раздела "Аниме" rutracker.org, сообщите об этом одному из модераторов раздела.
Данный релиз предназначен для просмотра на ПК. Воспроизведение на иных проигрывателях не гарантируется.
Данный релиз содержит 10-битное видео (Hi10p). Для корректного воспроизведения обязательно используйте кодеки, поддерживающие 10-битное видео.
Обсудить проблемы с воспроизведением и получить дополнительную информацию можно здесь.
Данный релиз предназначен для просмотра с внешними субтитрами. Для просмотра с субтитрами нужно:

установить шрифты из папки "RUS Subs » Fonts";

скопировать файлы .ass из папки "RUS Subs" в одну папку с видео - плеер подгрузит их автоматически при открытии видео.

Если у вас возникли проблемы с просмотром, не связанные с описанным выше, сообщите о них автору раздачи посредством сообщения в теме или ЛС Horodep.


Трекер:  [ 01-Авг-2017 14:30 ]

  

Скачать .torrent

Размер .torrent файла 49 KB


Размер: 9.64 GB
Хэш (hash) релиза: 06009da86c3a170655295b6e83eddffb0ddcfd2b
Подписка на обновления:

Еще никто не оставлял запись к записи скачать торрент История Осаму Тезуки: Я — Сон Гоку Tezuka Osamu Monogatari: Boku wa Son Gokuu . Будь первым!

!Обратная связь