Скачать через торрент Цветы запоздалые Фильм бесплатно в хорошем качестве torrent

Скачивайте на UnionPeer.org фильмы через торрент без регистрации. Новинки кино в хорошем качестве через торрент. На UnionPeer.org можно скачать через торрент фильмы 2014 и 2015 годов. Самые новые фильмы.

Скачать торрент Цветы запоздалые бесплатно через .torrent фильм мультфильм сериал

Если у вас наблюдаются проблемы со скриншотами, переходом по ссылками, скачиванием торрентов - проблемы в блокировщике рекламы AdBlock. #хорошегоДня!


Статистика раздачи
Размер:  4.3 GB   |    Зарегистрирован:  4 месяца 9 дней   |    .torrent скачан:  27 раз   |   
Раздают:  1  
   
Загрузка...
 
Автор Сообщение

Galfimbul

avatar Galfimbul


Цветы запоздалые

Страна: СССР
Год выпуска: 1970
Жанр: мюзикл, драма, мелодрама
Продолжительность: 01:34:47

Перевод: Оригинал
Субтитры: нет
Оригинальная аудиодорожка: русская

Режиссер: Абрам Роом

В ролях: Ирина Лаврентьева, Александр Лазарев, Валерий Золотухин, Ольга Жизнева, Александр Ханов, Инна Ульянова, Ирина Шаляпина, Зоя Василькова, Иван Жеваго, Любовь Калюжная

Описание: Любовь княжны к лечившему ее доктору остается безответной. Когда же спустя годы его сердце все же откликается на неугасающее чувство — оказывается слишком поздно…

Меню: есть, анимированное

Тип релиза: DVD5
Контейнер: DVD-Video

Видео: PAL 4:3 (720x576(0.530)) MPEG Video, 25,000 кадр/сек, 5500 Кбит/сек
Аудио: Russian (Dolby AC-3, 2ch) 192 Кбит/сек, 48.0 КГц
Общее
Полное имя : Tsvety zapozdalie\VIDEO_TS\VTS_03_1.VOB
Формат : MPEG-PS
Размер файла : 1024 Мбайт
Продолжительность : 24 м. 41 с.
Режим общего битрейта : Постоянный
Общий поток : 5799 Кбит/сек

Видео
Идентификатор : 224 (0xE0)
Формат : MPEG Video
Версия формата : Version 2
Профиль формата : Main@Main
Параметр BVOP формата : Да
Параметр матрицы формата : Выборочная
Параметр GOP формата : M=3, N=15
Структура изображения : Frame
Продолжительность : 24 м. 41 с.
Вид битрейта : Постоянный
Битрейт : 5500 Кбит/сек
Ширина : 720 пикселей
Высота : 576 пикселей
Соотношение сторон : 4:3
Частота кадров : 25,000 кадров/сек
Стандарт вещания : PAL
Цветовое пространство : YUV
Субдискретизация насыщенности : 4:2:0
Битовая глубина : 8 бит
Тип развёртки : Чересстрочная
Порядок развёртки : Нижнее поле первое
Метод сжатия : С потерями
Бит/(Пиксели*Кадры) : 0.530
Временной код первого кадра : 00:00:00:00
Оригинал временного кода : Group of pictures header
GOP, открыто/закрыто : Открыто
GOP, открыто/закрыто на первом кадре : Закрыто
Размер потока : 970 Мбайт (95%)

Аудио
Идентификатор : 189 (0xBD)-128 (0x80)
Формат : AC-3
Формат/Информация : Audio Coding 3
Параметр Endianness формата : Big
Режим смешивания : DVD-Video
Продолжительность : 24 м. 40 с.
Вид битрейта : Постоянный
Битрейт : 192 Кбит/сек
Каналы : 2 канала
Расположение каналов : Front: L R
Частота : 48,0 КГц
Частота кадров : 31,250 кадров/сек (1536 spf)
Битовая глубина : 16 бит
Метод сжатия : С потерями
Размер потока : 33,9 Мбайт (3%)
ServiceKind/String : Complete Main


Трекер:  [ 02-Авг-2017 22:06 ]

  

Скачать .torrent

Размер .torrent файла 12 KB


Размер: 4.3 GB
Хэш (hash) релиза: d4e96407efa6036af3f59a020dca04be3ffeea1c
Подписка на обновления:

Еще никто не оставлял запись к записи скачать торрент Цветы запоздалые . Будь первым!

!Обратная связь