Скачать через торрент Парашютисты Фильм бесплатно в хорошем качестве torrent

Скачивайте на UnionPeer.org фильмы через торрент без регистрации. Новинки кино в хорошем качестве через торрент. На UnionPeer.org можно скачать через торрент фильмы 2014 и 2015 годов. Самые новые фильмы.

Скачать торрент Парашютисты бесплатно через .torrent фильм мультфильм сериал

Если у вас наблюдаются проблемы со скриншотами, переходом по ссылками, скачиванием торрентов - проблемы в блокировщике рекламы AdBlock. #хорошегоДня!


Статистика раздачи
Размер:  3.53 GB   |    Зарегистрирован:  4 месяца 13 дней   |    .torrent скачан:  25 раз   |   
Раздают:  1  
   
Загрузка...
 
Автор Сообщение

Galfimbul

avatar Galfimbul


Парашютисты

Страна: СССР
Жанр: драма
Год выпуска: 1984
Продолжительность: 01:27:00

Перевод: Оригинал
Субтитры: нет
Оригинальная аудиодорожка: русская

Режиссер: Юрий Иванчук

В ролях: Александра Яковлева, Борис Невзоров, Елена Еланская, Владлен Бирюков, Степан Старчиков, Валерий Рыжаков, Вадим Захарченко, Ивар Калныньш, Елена Астафьева, Наталья Казначеева

Описание: В аэроклубе Зина познакомилась с кинооператором воздушных съемок Сергеем Алейкиным, очень серьезно занялась парашютным спортом и через некоторое время на международных соревнованиях стала одной из претенденток на золотую медаль.
Но вскоре рухнул в ущелье вертолет, в котором находился Сергей. И тогда Зина твердо решила уйти из спорта…

Меню: есть, статичное, озвученное

Тип релиза: DVD5
Контейнер: DVD-Video

Видео: PAL 4:3 (720x576(0.524)) MPEG Video, 25,000 кадр/сек, 5429 Кбит/сек
Аудио: Russian (Dolby AC-3, 2 ch) 192 Кбит/сек, 48.0 КГц
Общее
Полное имя : parashutisti_DVD5[torrents.ru]\VIDEO_TS\VTS_02_1.VOB
Формат : MPEG-PS
Размер файла : 1024 Мбайт
Продолжительность : 24 м. 57 с.
Режим общего битрейта : Переменный
Общий поток : 5735 Кбит/сек

Видео
Идентификатор : 224 (0xE0)
Формат : MPEG Video
Версия формата : Version 2
Профиль формата : Main@Main
Параметр BVOP формата : Да
Параметр матрицы формата : Выборочная
Параметр GOP формата : Variable
Структура изображения : Frame
Продолжительность : 24 м. 57 с.
Вид битрейта : Переменный
Битрейт : 5429 Кбит/сек
Максимальный битрейт : 8000 Кбит/сек
Ширина : 720 пикселей
Высота : 576 пикселей
Соотношение сторон : 4:3
Частота кадров : 25,000 кадров/сек
Стандарт вещания : PAL
Цветовое пространство : YUV
Субдискретизация насыщенности : 4:2:0
Битовая глубина : 8 бит
Тип развёртки : Чересстрочная
Порядок развёртки : Верхнее поле первое
Метод сжатия : С потерями
Бит/(Пиксели*Кадры) : 0.524
Временной код первого кадра : 00:00:00:00
Оригинал временного кода : Group of pictures header
Размер потока : 969 Мбайт (95%)
Основные цвета : BT.601 NTSC
Характеристики трансфера : BT.601
Коэффициенты матрицы : BT.601

Аудио
Идентификатор : 189 (0xBD)-128 (0x80)
Формат : AC-3
Формат/Информация : Audio Coding 3
Параметр Endianness формата : Big
Режим смешивания : DVD-Video
Продолжительность : 24 м. 57 с.
Вид битрейта : Постоянный
Битрейт : 192 Кбит/сек
Каналы : 2 канала
Расположение каналов : Front: L R
Частота : 48,0 КГц
Частота кадров : 31,250 кадров/сек (1536 spf)
Битовая глубина : 16 бит
Метод сжатия : С потерями
Размер потока : 34,3 Мбайт (3%)
ServiceKind/String : Complete Main


Трекер:  [ 02-Авг-2017 23:06 ]

  

Скачать .torrent

Размер .torrent файла 18 KB


Размер: 3.53 GB
Хэш (hash) релиза: e9df3ef20f2b507a30bd8b59ea7cf031550e7163
Подписка на обновления:

Еще никто не оставлял запись к записи скачать торрент Парашютисты . Будь первым!

!Обратная связь