Скачать через торрент Парад планет Фильм бесплатно в хорошем качестве torrent

Скачивайте на UnionPeer.org фильмы через торрент без регистрации. Новинки кино в хорошем качестве через торрент. На UnionPeer.org можно скачать через торрент фильмы 2014 и 2015 годов. Самые новые фильмы.

Скачать торрент Парад планет бесплатно через .torrent фильм мультфильм сериал

Если у вас наблюдаются проблемы со скриншотами, переходом по ссылками, скачиванием торрентов - проблемы в блокировщике рекламы AdBlock. #хорошегоДня!


Статистика раздачи
Размер:  4.17 GB   |    Зарегистрирован:  4 месяца 12 дней   |    .torrent скачан:  35 раз   |   
Раздают:  1  
   
Загрузка...
 
Автор Сообщение

Galfimbul

avatar Galfimbul


Парад планет

Страна: СССР
Жанр: фэнтези, драма
Год выпуска: 1984
Продолжительность: 01:31:11

Перевод: Оригинал
Субтитры: нет
Оригинальная аудиодорожка: русская

Режиссер: Вадим Абдрашитов

В ролях: Олег Борисов, Сергей Шакуров, Сергей Никоненко, Александр Пашутин, Петр Зайченко, Алексей Жарков, Борис Романов, Елена Майорова, Лилия Гриценко, Марина Шиманская

Описание: Редкое астрономическое явление — парад планет — оказывает странное влияние на нескольких мужчин. Шестеро сорокалетних людей жили совершенно разной жизнью. Но неожиданно они вместе отправляются в удивительное путешествие: город воспоминаний, остров женщин, царство старости.

Меню: есть, анимированное

Тип релиза: DVD5
Контейнер: DVD-Video

Видео: PAL 4:3 (720x576(0.395)) MPEG Video, 25,000 кадр/сек, 4097 Кбит/сек
Аудио: Russian (Dolby AC-3, 6ch) 448 Кбит/сек, 48.0 КГц
Аудио 2: Russian (Dolby AC-3, 1ch) 224 Кбит/сек, 48.0 КГц
Аудио 3: Russian (DTS, 6ch) 768 Кбит/сек, 48.0 КГц
Общее
Полное имя : Парад планет\VIDEO_TS\VTS_02_1.VOB
Формат : MPEG-PS
Размер файла : 1024 Мбайт
Продолжительность : 25 м. 23 с.
Режим общего битрейта : Переменный
Общий поток : 5636 Кбит/сек

Видео
Идентификатор : 224 (0xE0)
Формат : MPEG Video
Версия формата : Version 2
Профиль формата : Main@Main
Параметр BVOP формата : Да
Параметр матрицы формата : Выборочная
Параметр GOP формата : M=3, N=12
Структура изображения : Frame
Продолжительность : 25 м. 23 с.
Вид битрейта : Переменный
Битрейт : 4097 Кбит/сек
Ширина : 720 пикселей
Высота : 576 пикселей
Соотношение сторон : 4:3
Частота кадров : 25,000 кадров/сек
Стандарт вещания : PAL
Цветовое пространство : YUV
Субдискретизация насыщенности : 4:2:0
Битовая глубина : 8 бит
Тип развёртки : Чересстрочная
Порядок развёртки : Нижнее поле первое
Метод сжатия : С потерями
Бит/(Пиксели*Кадры) : 0.395
Размер потока : 744 Мбайт (73%)

Аудио #1
Идентификатор : 189 (0xBD)-128 (0x80)
Формат : AC-3
Формат/Информация : Audio Coding 3
Параметр Endianness формата : Big
Режим смешивания : DVD-Video
Продолжительность : 25 м. 23 с.
Вид битрейта : Постоянный
Битрейт : 448 Кбит/сек
Каналы : 6 каналов
Расположение каналов : Front: L C R, Side: L R, LFE
Частота : 48,0 КГц
Частота кадров : 31,250 кадров/сек (1536 spf)
Битовая глубина : 16 бит
Метод сжатия : С потерями
Задержка видео : 355 мс.
Размер потока : 81,4 Мбайт (8%)
ServiceKind/String : Complete Main

Аудио #2
Идентификатор : 189 (0xBD)-129 (0x81)
Формат : AC-3
Формат/Информация : Audio Coding 3
Параметр Endianness формата : Big
Режим смешивания : DVD-Video
Продолжительность : 25 м. 23 с.
Вид битрейта : Постоянный
Битрейт : 224 Кбит/сек
Каналы : 1 канал
Расположение каналов : Front: C
Частота : 48,0 КГц
Частота кадров : 31,250 кадров/сек (1536 spf)
Битовая глубина : 16 бит
Метод сжатия : С потерями
Задержка видео : 355 мс.
Размер потока : 40,7 Мбайт (4%)
ServiceKind/String : Complete Main

Аудио #3
Идентификатор : 189 (0xBD)-138 (0x8A)
Формат : DTS
Формат/Информация : Digital Theater Systems
Режим : 16
Параметр Endianness формата : Big
Режим смешивания : DVD-Video
Продолжительность : 25 м. 23 с.
Вид битрейта : Постоянный
Битрейт : 755 Кбит/сек
Каналы : 6 каналов
Расположение каналов : Front: L C R, Side: L R, LFE
Частота : 48,0 КГц
Частота кадров : 93,750 кадра/сек (512 spf)
Битовая глубина : 24 бит
Метод сжатия : С потерями
Задержка видео : 355 мс.
Размер потока : 137 Мбайт (13%)


Трекер:  [ 03-Авг-2017 22:06 ]

  

Скачать .torrent

Размер .torrent файла 11 KB


Размер: 4.17 GB
Хэш (hash) релиза: e7d7893e743d1c621a8bf17a44af8b4aa5c884e1
Подписка на обновления:

Еще никто не оставлял запись к записи скачать торрент Парад планет . Будь первым!

!Обратная связь