Umi ga Kikoeru torrent

, , - AdBlock. #!


36.73 GB   |    :  4 9    |    .torrent :  36    |   
1  
   
...
 

Galfimbul

avatar Galfimbul


/ Umi ga Kikoeru / 海がきこえる / Ocean Waves / I Can Hear the Sea
:
: 1993 .
: ,
: Movie
: 72 .
:
: Ghibli

: Blu-ray
:
: M2TS
: MPEG-4 AVC Video / 1920x1080 / 38547 kbps / 23,976 fps / High Profile 4.1
1: LPCM Audio / 2.0 / 48 kHz / 2304 kbps / 24-bit
2: [ ()] LPCM Audio / 2.0 / 48 kHz / 2304 kbps / 24-bit
3: [. (, )] Dolby Digital Audio / 2.0 / 48 kHz / 192 kbps
1: ,
2: ,
3: , [BurniN∙SnikerS]
4: , [ : , : ]
5: , [ , , BurniN∙SnikerS]" "
, , . , , , . , , , , , . : , ; ( ). , , . , . , , , , . , .
"" , " " - , . , , , , . , "" . , , " ". " " "" . , , , . , 12- "". " " , ( "", ), , .
, "" , . " " , , , , , . , "" ( , ), . , . " ", , " " , . , .
, . -, , -, . Ÿ , - , . , 13 , , , [ 40 ..], . Ÿ , . - , , ; : " . , . , , ". , NHK, . , , , " ", . , , , , , . "" . Ÿ , , , .
" " , . , . , , " " .
" : "


. :
, . , . , .
, . .
" " . " " " ".
, , , . :

: "10 : !"
(-)


( TFloater BurniN∙SnikerS).



:
TFloater, serin, 3gas, prfviper, hdrmv12, rgv, mmmsoft, feadraug, Strix78Fukuro, kot_feliks, w15, Serg_B, ksmirnov, ntktuf, TH95, gelom, tambov68, JohnniNUR, carafuto, Stanner, Darthlexx, Beonikol, ogenhd, 8bitman, FoxLive, Tuzik55555, Niflung, Segroil, AndyCher, zorro28, Prek177, hfpjdsq Arvy
MGVC- " ". .
"" "HDClub-".
Sonic Scenarist 5.7.2. Sony PS3, PowerDVD 13 TMT5.
Disc Title: OCEAN_WAVESDisc Size: 39 438 125 231 bytesProtection: AACSBD-Java: NoBDInfo: 0.5.8

Notes:

BDINFO HOME: Cinema Squid http://www.cinemasquid.com/blu-ray/tools/bdinfo

INCLUDES FORUMS REPORT FOR: AVS Forum Blu-ray Audio and Video Specifications Thread http://www.avsforum.com/avs-vb/showthread.php?t=1155731

********************PLAYLIST: 00000.MPLS********************

<--- BEGIN FORUMS PASTE --->

Total Video
Title Codec Length Movie Size Disc Size Bitrate Bitrate Main Audio Track Secondary Audio Track
----- ------ ------- -------------- -------------- ------- ------- ------------------ ---------------------
00000.MPLS AVC 1:12:08 24 680 503 296 39 438 125 231 45,62 38,55 LPCM 2.0 2304Kbps (48kHz/24-bit)
DISC INFO:

Disc Title: OCEAN_WAVES
Disc Size: 39 438 125 231 bytes
Protection: AACS
BD-Java: No
BDInfo: 0.5.8

PLAYLIST REPORT:

Name: 00000.MPLS
Length: 1:12:08.115 (h:m:s.ms)
Size: 24 680 503 296 bytes
Total Bitrate: 45,62 Mbps

VIDEO:

Codec Bitrate Description
----- ------- -----------
MPEG-4 AVC Video 38547 kbps 1080p / 23,976 fps / 16:9 / High Profile 4.1

AUDIO:

Codec Language Bitrate Description
----- -------- ------- -----------
LPCM Audio Japanese 2304 kbps 2.0 / 48 kHz / 2304 kbps / 24-bit
LPCM Audio Russian 2304 kbps 2.0 / 48 kHz / 2304 kbps / 24-bit
Dolby Digital Audio Russian 192 kbps 2.0 / 48 kHz / 192 kbps

SUBTITLES:

Codec Language Bitrate Description
----- -------- ------- -----------
Presentation Graphics Japanese 39,430 kbps
Presentation Graphics English 40,290 kbps
Presentation Graphics Russian 39,462 kbps
Presentation Graphics Russian 30,204 kbps
Presentation Graphics Russian 2,181 kbps

FILES:

Name Time In Length Size Total Bitrate
---- ------- ------ ---- -------------
00000.M2TS 0:00:00.000 1:12:08.115 24 680 503 296 45 619

CHAPTERS:

Number Time In Length Avg Video Rate Max 1-Sec Rate Max 1-Sec Time Max 5-Sec Rate Max 5-Sec Time Max 10Sec Rate Max 10Sec Time Avg Frame Size Max Frame Size Max Frame Time
------ ------- ------ -------------- -------------- -------------- -------------- -------------- -------------- -------------- -------------- -------------- --------------
1 0:00:00.000 0:06:21.839 37 972 kbps 56 289 kbps 00:00:54.804 44 505 kbps 00:00:30.321 42 489 kbps 00:00:49.758 197 946 bytes 711 341 bytes 00:00:07.006
2 0:06:21.839 0:05:45.428 38 888 kbps 47 181 kbps 00:11:23.474 44 627 kbps 00:07:57.351 42 079 kbps 00:07:34.162 202 745 bytes 680 103 bytes 00:08:49.362
3 0:12:07.268 0:07:53.931 39 255 kbps 58 233 kbps 00:15:18.626 44 622 kbps 00:12:55.608 42 397 kbps 00:17:19.288 204 657 bytes 670 387 bytes 00:15:18.667
4 0:20:01.200 0:07:53.472 39 408 kbps 49 839 kbps 00:26:48.815 44 073 kbps 00:22:51.161 41 928 kbps 00:26:18.577 205 456 bytes 617 352 bytes 00:24:58.330
5 0:27:54.672 0:05:20.486 38 760 kbps 48 242 kbps 00:28:11.272 44 226 kbps 00:28:10.563 41 299 kbps 00:31:13.746 202 075 bytes 676 779 bytes 00:28:14.234
6 0:33:15.159 0:05:13.146 38 618 kbps 49 193 kbps 00:34:08.171 44 444 kbps 00:37:05.514 42 075 kbps 00:35:18.324 201 336 bytes 637 610 bytes 00:34:48.753
7 0:38:28.306 0:04:44.867 38 553 kbps 63 692 kbps 00:38:29.265 43 811 kbps 00:38:29.265 41 928 kbps 00:41:58.307 201 000 bytes 627 266 bytes 00:38:29.348
8 0:43:13.173 0:04:35.942 38 703 kbps 47 014 kbps 00:47:18.001 42 188 kbps 00:47:18.001 41 057 kbps 00:47:18.001 201 781 bytes 570 987 bytes 00:47:15.791
9 0:47:49.116 0:04:53.501 38 320 kbps 50 224 kbps 00:49:56.827 44 759 kbps 00:51:35.509 41 833 kbps 00:49:24.586 199 781 bytes 716 932 bytes 00:51:38.178
10 0:52:42.617 0:06:07.617 37 759 kbps 46 865 kbps 00:57:54.053 43 003 kbps 00:53:56.107 41 203 kbps 00:53:52.270 196 860 bytes 599 402 bytes 00:57:28.862
11 0:58:50.235 0:06:09.285 37 853 kbps 46 650 kbps 01:01:08.956 42 953 kbps 01:01:07.121 41 203 kbps 00:59:43.162 197 348 bytes 541 603 bytes 01:01:09.916
12 1:04:59.520 0:04:20.635 38 244 kbps 54 061 kbps 01:08:01.494 42 925 kbps 01:05:17.455 42 103 kbps 01:05:14.577 199 386 bytes 515 953 bytes 01:05:10.072
13 1:09:20.156 0:02:46.958 38 266 kbps 59 373 kbps 01:12:03.902 41 475 kbps 01:11:59.898 40 784 kbps 01:10:33.604 199 500 bytes 585 204 bytes 01:12:04.570
14 1:12:07.114 0:00:01.001 79 kbps 0 kbps 00:00:00.000 0 kbps 00:00:00.000 0 kbps 00:00:00.000 427 bytes 536 bytes 01:12:08.073

STREAM DIAGNOSTICS:

File PID Type Codec Language Seconds Bitrate Bytes Packets
---- --- ---- ----- -------- -------------- -------------- ------------- -----
00000.M2TS 4113 (0x1011) 0x1B AVC 4327,990 38 548 20 854 451 679 113 399 794
00000.M2TS 4352 (0x1100) 0x80 LPCM jpn (Japanese) 4327,990 2 310 1 249 961 056 6 924 992
00000.M2TS 4353 (0x1101) 0x80 LPCM rus (Russian) 4327,990 2 310 1 249 961 056 6 924 992
00000.M2TS 4354 (0x1102) 0x81 AC3 rus (Russian) 4327,990 192 103 864 320 676 200
00000.M2TS 4608 (0x1200) 0x90 PGS jpn (Japanese) 4327,990 39 21 332 231 125 681
00000.M2TS 4609 (0x1201) 0x90 PGS eng (English) 4327,990 40 21 797 220 124 467
00000.M2TS 4610 (0x1202) 0x90 PGS rus (Russian) 4327,990 39 21 349 498 121 747
00000.M2TS 4611 (0x1203) 0x90 PGS rus (Russian) 4327,990 30 16 340 809 94 773
00000.M2TS 4612 (0x1204) 0x90 PGS rus (Russian) 4327,990 2 1 179 706 6 643
<pre>
<---- END FORUMS PASTE ---->

QUICK SUMMARY:

Disc Title: OCEAN_WAVESDisc Size: 39 438 125 231 bytesProtection: AACSBD-Java: NoPlaylist: 00000.MPLSSize: 24 680 503 296 bytesLength: 1:12:08.115Total Bitrate: 45,62 MbpsVideo: MPEG-4 AVC Video / 38547 kbps / 1080p / 23,976 fps / 16:9 / High Profile 4.1Audio: Japanese / LPCM Audio / 2.0 / 48 kHz / 2304 kbps / 24-bitAudio: Russian / LPCM Audio / 2.0 / 48 kHz / 2304 kbps / 24-bitAudio: Russian / Dolby Digital Audio / 2.0 / 48 kHz / 192 kbpsSubtitle: Japanese / 39,430 kbpsSubtitle: English / 40,290 kbpsSubtitle: Russian / 39,462 kbpsSubtitle: Russian / 30,204 kbpsSubtitle: Russian / 2,181 kbps

********************PLAYLIST: 00008.MPLS********************

<--- BEGIN FORUMS PASTE --->
</pre>
Total Video
Title Codec Length Movie Size Disc Size Bitrate Bitrate Main Audio Track Secondary Audio Track
----- ------ ------- -------------- -------------- ------- ------- ------------------ ---------------------
00008.MPLS AVC 1:12:08 5 470 889 472 39 438 125 231 10,11 5,49 DD AC3 2.0 192Kbps
DISC INFO:

Disc Title: OCEAN_WAVES
Disc Size: 39 438 125 231 bytes
Protection: AACS
BD-Java: No
BDInfo: 0.5.8

PLAYLIST REPORT:

Name: 00008.MPLS
Length: 1:12:08.073 (h:m:s.ms)
Size: 5 470 889 472 bytes
Total Bitrate: 10,11 Mbps

VIDEO:

Codec Bitrate Description
----- ------- -----------
MPEG-4 AVC Video 5485 kbps 1080p / 23,976 fps / 16:9 / High Profile 4.1
MPEG-4 AVC Video 3800 kbps 480p / 23,976 fps / 16:9 / High Profile 3.2

AUDIO:

Codec Language Bitrate Description
----- -------- ------- -----------
Dolby Digital Audio Japanese 192 kbps 2.0 / 48 kHz / 192 kbps

SUBTITLES:

Codec Language Bitrate Description
----- -------- ------- -----------
Presentation Graphics English 39,766 kbps
Presentation Graphics Russian 35,694 kbps

FILES:

Name Time In Length Size Total Bitrate
---- ------- ------ ---- -------------
00005.M2TS 0:00:00.000 1:12:08.073 5 470 889 472 10 112

CHAPTERS:

Number Time In Length Avg Video Rate Max 1-Sec Rate Max 1-Sec Time Max 5-Sec Rate Max 5-Sec Time Max 10Sec Rate Max 10Sec Time Avg Frame Size Max Frame Size Max Frame Time
------ ------- ------ -------------- -------------- -------------- -------------- -------------- -------------- -------------- -------------- -------------- --------------
1 0:00:00.000 0:06:21.839 5 398 kbps 33 803 kbps 00:03:37.133 28 330 kbps 00:03:35.798 25 213 kbps 00:03:32.503 28 139 bytes 613 669 bytes 00:04:51.374
2 0:06:21.839 0:05:45.428 4 351 kbps 15 304 kbps 00:06:54.705 12 115 kbps 00:06:50.618 10 736 kbps 00:06:48.324 22 686 bytes 672 913 bytes 00:09:18.349
3 0:12:07.268 0:07:53.931 11 888 kbps 49 787 kbps 00:15:18.751 30 920 kbps 00:16:41.834 28 608 kbps 00:16:41.834 61 980 bytes 727 314 bytes 00:12:26.203
4 0:20:01.200 0:07:53.472 3 909 kbps 33 042 kbps 00:27:39.449 29 342 kbps 00:27:39.449 25 756 kbps 00:27:39.991 20 380 bytes 833 266 bytes 00:20:13.503
5 0:27:54.672 0:05:20.486 4 424 kbps 34 554 kbps 00:28:14.567 27 441 kbps 00:28:10.563 15 407 kbps 00:28:10.897 23 064 bytes 686 332 bytes 00:30:06.221
6 0:33:15.159 0:05:13.146 3 422 kbps 17 960 kbps 00:33:21.249 14 033 kbps 00:33:17.245 9 366 kbps 00:33:16.828 17 839 bytes 812 898 bytes 00:34:47.835
7 0:38:28.306 0:04:44.867 3 516 kbps 16 999 kbps 00:41:17.224 12 917 kbps 00:41:17.224 9 277 kbps 00:41:01.750 18 332 bytes 602 792 bytes 00:38:58.044
8 0:43:13.173 0:04:35.942 2 991 kbps 12 296 kbps 00:44:47.935 6 662 kbps 00:47:30.722 5 719 kbps 00:47:30.722 15 592 bytes 849 606 bytes 00:43:41.285
9 0:47:49.116 0:04:53.501 4 562 kbps 35 123 kbps 00:52:28.103 31 984 kbps 00:52:28.103 19 233 kbps 00:52:25.600 23 786 bytes 755 195 bytes 00:49:31.635
10 0:52:42.617 0:06:07.617 4 571 kbps 39 562 kbps 00:57:27.277 33 799 kbps 00:57:27.277 21 515 kbps 00:52:43.160 23 830 bytes 812 108 bytes 00:54:02.864
11 0:58:50.235 0:06:09.285 3 322 kbps 27 764 kbps 01:03:10.953 10 145 kbps 01:03:07.867 7 123 kbps 01:01:40.405 17 322 bytes 881 406 bytes 01:01:44.742
12 1:04:59.520 0:04:20.635 9 166 kbps 38 778 kbps 01:06:22.144 32 528 kbps 01:06:28.693 31 954 kbps 01:06:27.942 47 785 bytes 605 339 bytes 01:06:22.269
13 1:09:20.156 0:02:47.917 10 360 kbps 37 824 kbps 01:12:03.068 18 894 kbps 01:11:59.732 14 654 kbps 01:11:54.727 54 012 bytes 434 359 bytes 01:12:03.110

STREAM DIAGNOSTICS:

File PID Type Codec Language Seconds Bitrate Bytes Packets
---- --- ---- ----- -------- -------------- -------------- ------------- -----
00005.M2TS 4113 (0x1011) 0x1B AVC 4328,032 5 485 2 967 539 587 16 204 423
00005.M2TS 4352 (0x1100) 0x81 AC3 jpn (Japanese) 4328,032 192 103 875 072 676 270
00005.M2TS 4608 (0x1200) 0x90 PGS eng (English) 4328,032 40 21 513 825 122 851
00005.M2TS 4609 (0x1201) 0x90 PGS rus (Russian) 4328,032 36 19 310 957 110 615
00005.M2TS 6912 (0x1B00) 0x1B AVC 4328,032 3 800 2 055 958 777 11 235 121
<pre>
<---- END FORUMS PASTE ---->

QUICK SUMMARY:

Disc Title: OCEAN_WAVESDisc Size: 39 438 125 231 bytesProtection: AACSBD-Java: NoPlaylist: 00008.MPLSSize: 5 470 889 472 bytesLength: 1:12:08.073Total Bitrate: 10,11 MbpsVideo: MPEG-4 AVC Video / 5485 kbps / 1080p / 23,976 fps / 16:9 / High Profile 4.1Video: MPEG-4 AVC Video / 3800 kbps / 480p / 23,976 fps / 16:9 / High Profile 3.2Audio: Japanese / Dolby Digital Audio / 2.0 / 48 kHz / 192 kbpsSubtitle: English / 39,766 kbpsSubtitle: Russian / 35,694 kbps

********************PLAYLIST: 00002.MPLS********************

<--- BEGIN FORUMS PASTE --->
</pre>
Total Video
Title Codec Length Movie Size Disc Size Bitrate Bitrate Main Audio Track Secondary Audio Track
----- ------ ------- -------------- -------------- ------- ------- ------------------ ---------------------
00002.MPLS AVC 0:50:07 6 889 015 296 39 438 125 231 18,33 16,99 DD AC3 2.0 192Kbps
DISC INFO:

Disc Title: OCEAN_WAVES
Disc Size: 39 438 125 231 bytes
Protection: AACS
BD-Java: No
BDInfo: 0.5.8

PLAYLIST REPORT:

Name: 00002.MPLS
Length: 0:50:07.004 (h:m:s.ms)
Size: 6 889 015 296 bytes
Total Bitrate: 18,33 Mbps

VIDEO:

Codec Bitrate Description
----- ------- -----------
MPEG-4 AVC Video 16993 kbps 1080i / 29,970 fps / 16:9 / High Profile 4.1

AUDIO:

Codec Language Bitrate Description
----- -------- ------- -----------
Dolby Digital Audio Japanese 192 kbps 2.0 / 48 kHz / 192 kbps

SUBTITLES:

Codec Language Bitrate Description
----- -------- ------- -----------
Presentation Graphics English 39,620 kbps
Presentation Graphics Russian 218,780 kbps

FILES:

Name Time In Length Size Total Bitrate
---- ------- ------ ---- -------------
00006.M2TS 0:00:00.000 0:50:07.004 6 889 015 296 18 328

CHAPTERS:

Number Time In Length Avg Video Rate Max 1-Sec Rate Max 1-Sec Time Max 5-Sec Rate Max 5-Sec Time Max 10Sec Rate Max 10Sec Time Avg Frame Size Max Frame Size Max Frame Time
------ ------- ------ -------------- -------------- -------------- -------------- -------------- -------------- -------------- -------------- -------------- --------------
1 0:00:00.000 0:05:12.312 16 073 kbps 30 324 kbps 00:00:20.787 29 353 kbps 00:00:16.783 28 980 kbps 00:00:23.390 67 029 bytes 263 609 bytes 00:02:37.624
2 0:05:12.312 0:01:41.134 16 541 kbps 22 438 kbps 00:06:06.265 21 068 kbps 00:06:12.939 20 034 kbps 00:06:08.134 68 990 bytes 228 838 bytes 00:06:34.761
3 0:06:53.446 0:04:58.598 16 889 kbps 22 867 kbps 00:09:13.519 20 936 kbps 00:09:11.217 19 626 kbps 00:09:10.883 70 443 bytes 207 732 bytes 00:09:48.688
4 0:11:52.044 0:10:44.977 19 371 kbps 32 350 kbps 00:15:25.424 30 938 kbps 00:15:24.556 28 655 kbps 00:18:45.891 80 794 bytes 277 358 bytes 00:15:00.833
5 0:22:37.022 0:05:49.182 16 890 kbps 22 243 kbps 00:28:12.824 20 548 kbps 00:28:11.222 19 800 kbps 00:28:06.184 70 443 bytes 215 288 bytes 00:27:58.943
6 0:28:26.204 0:07:28.614 17 020 kbps 26 530 kbps 00:30:07.472 22 360 kbps 00:30:06.971 20 930 kbps 00:35:44.041 70 988 bytes 255 597 bytes 00:34:30.101
7 0:35:54.819 0:02:23.810 16 269 kbps 24 569 kbps 00:37:49.734 21 726 kbps 00:37:47.898 20 623 kbps 00:37:47.999 67 853 bytes 262 636 bytes 00:38:04.382
8 0:38:18.629 0:01:19.546 17 179 kbps 25 671 kbps 00:39:34.405 24 436 kbps 00:39:30.468 23 251 kbps 00:39:28.165 71 651 bytes 227 312 bytes 00:39:36.340
9 0:39:38.175 0:04:55.495 16 780 kbps 24 374 kbps 00:43:47.825 23 786 kbps 00:43:47.825 22 465 kbps 00:43:45.456 69 987 bytes 222 407 bytes 00:40:38.436
10 0:44:33.671 0:05:32.332 14 043 kbps 22 163 kbps 00:45:30.294 20 779 kbps 00:47:11.028 19 708 kbps 00:45:25.723 58 571 bytes 216 710 bytes 00:44:58.729
11 0:50:06.003 0:00:01.000 3 972 kbps 0 kbps 00:00:00.000 0 kbps 00:00:00.000 0 kbps 00:00:00.000 17 136 bytes 166 666 bytes 00:50:06.937

STREAM DIAGNOSTICS:

File PID Type Codec Language Seconds Bitrate Bytes Packets
---- --- ---- ----- -------- -------------- -------------- ------------- -----
00006.M2TS 4113 (0x1011) 0x1B AVC 3006,871 16 994 6 387 259 988 34 766 022
00006.M2TS 4352 (0x1100) 0x81 AC3 jpn (Japanese) 3006,871 192 72 168 192 469 845
00006.M2TS 4608 (0x1200) 0x90 PGS eng (English) 3006,871 40 14 892 324 86 727
00006.M2TS 4609 (0x1201) 0x90 PGS rus (Russian) 3006,871 219 82 234 039 456 944
<pre>
<---- END FORUMS PASTE ---->

QUICK SUMMARY:

Disc Title: OCEAN_WAVESDisc Size: 39 438 125 231 bytesProtection: AACSBD-Java: NoPlaylist: 00002.MPLSSize: 6 889 015 296 bytesLength: 0:50:07.004Total Bitrate: 18,33 MbpsVideo: MPEG-4 AVC Video / 16993 kbps / 1080i / 29,970 fps / 16:9 / High Profile 4.1Audio: Japanese / Dolby Digital Audio / 2.0 / 48 kHz / 192 kbpsSubtitle: English / 39,620 kbpsSubtitle: Russian / 218,780 kbps
</pre>
...5405106
...5052806
Blu-ray
"Ѩ Ȼ"

14.07.2010 (1984)
22.12.2010 (1986)
22.12.2010 (1999)
17.06.2011 (2010)
20.07.2011 ظ (1995)
16.11.2011 (2004)
16.11.2011 (2006)
16.11.2011 (2008)
20.06.2012 (2011)
18.07.2012 (1988)
18.07.2012 (1988)
04.12.2012 (1989)
04.12.2012 (1991)
17.07.2013 (1992)
06.11.2013 (1994)
04.12.2013 (1997)
04.12.2013 + (2002)
18.06.2014 (2013)
16.07.2014 (2001)
06.08.2014 III: (1979)
03.12.2014 (2013)
18.03.2015 (2014)
17.07.2015 (1993)



04.07.2007 (2007)
19.12.2007 : "" (2007)
03.07.2009 "": 25 (2008)
17.11.2010 : (2010)
21.05.2014 (2014)
02.07.2014 + (1972)
02.07.2014 - (2013)
27.10.2014 On Your Mark (1995)
21.01.2015 (1968)
21.01.2015 (1987)
17.07.2015 + (1972, 1973)
17.07.2015 (1982)



25.07.2008 (1981)
25.07.2008 (1984)


 ·  , , FAQ-
:  [ 04--2017 01:01 ]

  

.torrent

.torrent 189 KB


: 36.73 GB
(hash) : 9d83f9639ae52a52a088d151c95ce1a124ac6367
:
··
...

Umi ga Kikoeru . !

!