Скачать через торрент Затерянные в стране Оз Lost in Oz Фильм бесплатно в хорошем качестве torrent

Скачивайте на UnionPeer.org фильмы через торрент без регистрации. Новинки кино в хорошем качестве через торрент. На UnionPeer.org можно скачать через торрент фильмы 2014 и 2015 годов. Самые новые фильмы.

Скачать торрент Затерянные в стране Оз Lost in Oz бесплатно через .torrent фильм мультфильм сериал

Если у вас наблюдаются проблемы со скриншотами, переходом по ссылками, скачиванием торрентов - проблемы в блокировщике рекламы AdBlock. #хорошегоДня!


Статистика раздачи
Размер:  1.13 GB   |    Зарегистрирован:  4 месяца 10 дней   |    .torrent скачан:  39 раз   |   
Раздают:  1  
   
Загрузка...
 
Автор Сообщение

Galfimbul

avatar Galfimbul


Затерянные в стране Оз / Lost in Oz

Страна: США, Канада, Великобритания
Жанр: мультфильм, семейный, приключения
Продолжительность серии: 00:22:47
Год выпуска: 2017
Перевод: Любительский (двухголосый закадровый) NewStation
Русские субтитры: нет

Режиссёр: Пол Стодольный / Paul Stodolny
Роли озвучивали: Ландри Бендер, Ника Футтерман, Хорхе Диас, Крис Кокс, Александр Полински, Эллисон Мэк, Стефен Стэнтон

Описание: В первом сезоне "Затерянные в стране Оз" 12-ти летняя Дороти Гейл и ее верный пес Тото отправляются на поиски Доброй Глинды, в надежде, что она сможет дать им магию, необходимую им для возвращения домой. По пути они встречают удивительных друзей и вместе отправляются за приключениям, которые они и не могли представить.

Список серий:
0.1 Вперед / Go Forth

Сэмпл


Качество: WEB-DL 1080p
Формат: MKV
Видео: AVC, 1920x1080, 16:9, 23,976 кадров/сек, ~6183 Кбит/сек
Аудио #1: [RUS] 48 kHz, AC-3, 2ch, ~256 kbps
Аудио #2: [ENG] 48 kHz, EAC3, 6ch, ~640 kbps
Субтитры: Английские
GeneralUnique ID : 217662420015119727449365103607447394126 (0xA3C041DAF8B920A0BD38649429E1974E)Complete name : E:\NewStation\Lost.in.Oz.S01.WEB-DL.1080p.NewStation\Lost.in.Oz.S01E01.WEB-DL.1080p.NewStation.mkvFormat : MatroskaFormat version : Version 4 / Version 2File size : 1.13 GiBDuration : 22 min 47 sOverall bit rate mode : VariableOverall bit rate : 7 081 kb/sEncoded date : UTC 2017-08-04 22:16:22Writing application : mkvmerge v13.0.0 ('The Juggler') 64bitWriting library : libebml v1.3.4 + libmatroska v1.4.5

VideoID : 1Format : AVCFormat/Info : Advanced Video CodecFormat profile : High@L4Format settings, CABAC : YesFormat settings, RefFrames : 4 framesCodec ID : V_MPEG4/ISO/AVCDuration : 22 min 47 sBit rate mode : VariableBit rate : 6 183 kb/sMaximum bit rate : 15.0 Mb/sWidth : 1 920 pixelsHeight : 1 080 pixelsDisplay aspect ratio : 16:9Frame rate mode : ConstantFrame rate : 23.976 (24000/1001) FPSColor space : YUVChroma subsampling : 4:2:0Bit depth : 8 bitsScan type : ProgressiveBits/(Pixel*Frame) : 0.124Stream size : 1 008 MiB (87%)Default : YesForced : NoColor range : LimitedColor primaries : BT.709Transfer characteristics : BT.709Matrix coefficients : BT.709

Audio #1ID : 2Format : AC-3Format/Info : Audio Coding 3Format settings, Endianness : BigCodec ID : A_AC3Duration : 22 min 47 sBit rate mode : ConstantBit rate : 256 kb/sChannel(s) : 2 channelsChannel positions : Front: L RSampling rate : 48.0 kHzFrame rate : 31.250 FPS (1536 SPF)Bit depth : 16 bitsCompression mode : LossyStream size : 41.7 MiB (4%)Title : Rus NewStationService kind : Complete MainDefault : YesForced : No

Audio #2ID : 3Format : E-AC-3Format/Info : Enhanced Audio Coding 3Format settings, Endianness : BigCodec ID : A_EAC3Duration : 22 min 47 sBit rate mode : ConstantBit rate : 640 kb/sChannel(s) : 6 channelsChannel positions : Front: L C R, Side: L R, LFESampling rate : 48.0 kHzFrame rate : 187.500 FPS (256 SPF)Compression mode : LossyStream size : 104 MiB (9%)Title : OriginalLanguage : EnglishService kind : Complete MainDefault : NoForced : No

TextID : 4Format : UTF-8Codec ID : S_TEXT/UTF8Codec ID/Info : UTF-8 Plain TextDuration : 22 min 6 sBit rate : 67 b/sCount of elements : 473Stream size : 11.0 KiB (0%)Language : EnglishDefault : NoForced : No

Menu00:00:00.000 : en:Amazon Original00:00:05.000 : en:Title Sequence00:00:18.000 : en:Dorothy finds a mysterious book00:04:51.000 : en:Dorothy arrives in Oz00:07:03.000 : en:West finds Dorothy00:10:39.000 : en:Dorothy meets the Patchwork Doll00:12:25.000 : en:The gang finds some Ozonium00:14:25.000 : en:Dorothy finds some Ozonium00:16:05.000 : en:Fitz reveals his magic00:21:41.000 : en:Dorothy learns about Glinda the Good00:22:09.000 : en:End Credits


Трекер:  [ 05-Авг-2017 16:24 ]

  

Скачать .torrent

Размер .torrent файла 12 KB


Размер: 1.13 GB
Хэш (hash) релиза: 497dd1117d3666efe701d8213f72afcf8574334b
Подписка на обновления:

Еще никто не оставлял запись к записи скачать торрент Затерянные в стране Оз Lost in Oz . Будь первым!

!Обратная связь