Скачать через торрент Коты-Самураи Kyatto Ninden Teyandee бесплатно Аниме Все серии на русском torrent

Если у вас наблюдаются проблемы со скриншотами, переходом по ссылками, скачиванием торрентов - проблемы в блокировщике рекламы AdBlock. #хорошегоДня!


Статистика раздачи
Размер:  58.04 GB   |    Зарегистрирован:  4 месяца 8 дней   |    .torrent скачан:  42 раза   |   
Раздают:  1  
   
Загрузка...
 
Автор Сообщение

Galfimbul

avatar Galfimbul


Коты-Самураи / Kyatto Ninden Teyandee / Samurai Pizza Cats

Страна: Япония
Год выпуска: 1990
Жанр: боевик, комедия, фантастика, меха
Тип: TV
Продолжительность: от 22 до 24 мин. серия
Режиссер: Kunitoshi Okajima
Студии: Tatsunoko Productions, Sotsu Agency
Качество: DVDRemux
Тип релиза: Без хардсаба
Формат видео: MKV
Релиз/Автор рипа: KLZazy
Совместимость с бытовыми плеерами: Нет
Видео: MPEG2, 720x480, ~6000 kbps, 29,970 fps
Аудио: AC-3, 448 kbps, 48 KHz, 2 ch, японский
Субтитры: .srt, внешние, русские от PIZZACATS.RU: Мякса, Red Hunter, Rise, Fureon, Готтон, Speedy

Описание: Samurai Pizza Cats (он же "Kyatto Ninden Teyandee" - キャッ党 忍伝 てやんでえ) - аниме-сериал про котов-самураев, работающих в пиццерии и защищающих свой родной город Малый Токио от премьер-министра Сеймура и его помощников, которые втайне командуют построением огромных роботов, чтобы захватить власть над городом, на данный момент управляемым капризной принцесой и её обезумевшим отцом - императором Фредом.
"После окончания показа аниме Kyatto Ninden Teyandee в Японии, компания Saban приобрела у Tatsunoko права на показ сериала в Америке. Однако, взявшись за процесс перевода, Saban обнаружили, что большую часть информации о персонажах, сюжете, и прочих важных вещах им попросту не предоставили. А та скудная информация, что всё-таки была предоставлена, была переведена так коряво, что смысл уловить было невозможно. Работать с таким материалом было чересчур трудно, поэтому Saban нашли оригинальный выход - придумать всю эту информацию самим. Разумеется, таким способом "перевода" было бы трудно создать что-то серьёзное, поэтому было решено превратить сериал в разудалую комедию в духе традиционных американских мультиков. Результатом стал сериал Samurai Pizza Cats. <...> в Samurai Pizza Cats некоторые сцены были удалены как незначительные или неприемлемые для детей."©PIZZACATS.RU

И ещё: в Samurai Pizza Cats 52 эпизода. В Kyatto Ninden Teyandee - 54. "KNT10 и KNT51 были нарезками из предыдущих эпизодов и не были переведены."©PIZZACATS.RU

В раздаче - оригинальный японский Kyatto Ninden Teyandee без цензуры и англоязычного "перевода", который был показан во всём остальном мире, включая Россию.

В качестве исходника были использованы 8xDVD9 Kyatto Ninden Teyandee, выпущенные Discotek Media. Также Kyatto Ninden Teyandee был издан King Records на 9xDVD9, но их видео- и звукоряд сериала идентичны изданию Discotek вплоть до хэш-сумм. Отличия дисков King Records от Discotek - в количестве, структуре, оформлении меню и (самое главное) отсутствии английских субтиров.
ОбщееУникальный идентификатор : 224745530196059416527744232336729767817 (0xA9146A26514367F9B2E39F3592FEFF89)Полное имя : G:\Kyatto Ninden Teyandee\06 - Экстремальная прогулка! Аттракцион для принцессы-шалуньи.mkvФормат : MatroskaВерсия формата : Version 4 / Version 2Размер файла : 1,18 ГбайтПродолжительность : 24 м. 22 с.Режим общего битрейта : ПеременныйОбщий поток : 6949 Кбит/секДата кодирования : UTC 2017-07-29 13:07:24Программа кодирования : mkvmerge v14.0.0 ('Flow') 64bitБиблиотека кодирования : libebml v1.3.4 + libmatroska v1.4.5

ВидеоИдентификатор : 2Формат : MPEG VideoВерсия формата : Version 2Профиль формата : Main@MainПараметр BVOP формата : ДаПараметр матрицы формата : ВыборочнаяПараметр GOP формата : VariableСтруктура изображения : FrameИдентификатор кодека : V_MPEG2Идентификатор кодека/Информация : MPEG 1 or 2 VideoПродолжительность : 24 м. 22 с.Вид битрейта : ПеременныйБитрейт : 6495 Кбит/секМаксимальный битрейт : 9800 Кбит/секШирина : 720 пикселейВысота : 480 пикселейСоотношение сторон : 4:3Режим частоты кадров : ПеременныйЧастота кадров : 29,970 кадров/секСтандарт вещания : NTSCЦветовое пространство : YUVСубдискретизация насыщенности : 4:2:0Битовая глубина : 8 битТип развёртки : ЧересстрочнаяПорядок развёртки : Верхнее поле первоеМетод сжатия : С потерямиБит/(Пиксели*Кадры) : 0.627Временной код первого кадра : 01:24:20:28Оригинал временного кода : Group of pictures headerРазмер потока : 1,11 Гбайт (93%)Default : ДаForced : Нет

АудиоИдентификатор : 1Формат : AC-3Формат/Информация : Audio Coding 3Параметр Endianness формата : BigИдентификатор кодека : A_AC3Продолжительность : 24 м. 22 с.Вид битрейта : ПостоянныйБитрейт : 448 Кбит/секКаналы : 2 каналаРасположение каналов : Front: L RЧастота : 48,0 КГцЧастота кадров : 31,250 кадров/сек (1536 SPF)Битовая глубина : 16 битМетод сжатия : С потерямиРазмер потока : 78,1 Мбайт (6%)Язык : JapaneseServiceKind/String : Complete MainDefault : ДаForced : Нет
01 - Секретная команда ниндзя - Нянки, вперёд!
02 - Город полон суши! Паника!
03 - Рыть глубоко и ещё глубже!
04 - Проблемы? Покупайте карты счастья!
05 - Рождение айдола⁇ Сладкая ловушка шоу-бизнеса
06 - Экстремальная прогулка! Аттракцион для принцессы-шалуньи
07 - Правда? Карамару становится героем?
08 - Не ужасно ли?! Большой секрет Коона
09 - Что принцессе развлечение, то другим страх!
10 - Внимание! Это Нянки!
11 - Отец загнанного мальчика - одарённый изобретатель!
12 - Необычная роль, чудесная роль! Слабость Нянки?
13 - Нянки побеждены? Появление Квартета Тёмных Ниндзя!
14 - Усиление! Нянки взмывают в небеса!
15 - Желание! Коон-но-ками хочет популярности!
16 - Обман! Сёгун - самозванец?
17 - Где же он? Исчезновение Дай-сенсея
18 - Ухаживания и вызов на бейсбольный матч
19 - Двойное свидание! Двойная опасность!
20 - А? Заявление Дебютантки Пурурун!
21 - Бум-Бум! Тануки создает суматоху!
22 - Пицца-Вороны: Ограниченная Экспресс-Доставка?
23 - Разгром! Кто - секретная кинозвезда?
24 - Странно? У Коона-но-Ками есть ребёнок?
25 - Мило? Яттаро превращается в девушку!
26 - Большое приключение! В поисках Птицы-Панацеи
27 - Неприятно! Сосланы на остров заключенных?
28 - Не может быть?! Команда Нянки распалась?
29 - Открытие!? Тайны личностей Нянки!
30 - Легендарный айдол? Сукаши в пролёте
31 - Боль Карамару! Любовь Ниндзя
32 - У флейты Пурурун сказочное происхождение?!
33 - Загадка? Приятель из космоса!
34 - План определённой победы! Клан Каракара силён!
35 - Все на поиски! Исчезновение Некки возле озера!
36 - Обжигающая страсть юности! Плюс возвращение Дай-сенсея
37 - Неужели? Яттаро умирает на закате
38 - Победить Карамару! Слёзы, слёзы великого возрождения
39 - Hello! Яттаро летит за границу!
40 - Нянки из НЛО против пришельцев!
41 - Трогательно! Мама возвращается домой!
42 - Большой, запутанный бой на горячих источниках!?
43 - Спешите все! Турнир решит, кто №1!
44 - Беда! Масамаса украли!
45 - Разочарование! Страдания Коон-но-ками!
46 - Нянки застревают во времени!
47 - Появились! Нянки-Самозванцы!
48 - Санта-Нянки взлетают!
49 - Довольно! Яттаро сослан на Остров Заключённых!
50 - Большой "ВАХАХА" план Геннаринасая!
51 - Ужасно! Большой план Коона-но-ками!
52 - Величайшая операция Коона-но-ками!
53 - Завтра снова будет ясный денёк!
54 - Нянки Навсегда!
...4492962 - TVRip английского Samurai Pizza Cats
...3694799 - DVDRip английского Samurai Pizza Cats
...3416287 - VHSRip английского Samurai Pizza Cats

От всех вышеперечисленных - DVDRemux японского Kyatto Ninden Teyandee


Трекер:  [ 05-Авг-2017 23:01 ]

  

Скачать .torrent

Размер .torrent файла 157 KB


Размер: 58.04 GB
Хэш (hash) релиза: cfd7596eea1e19211381f84a1a1ede84145dac3f
Подписка на обновления:

Еще никто не оставлял запись к записи скачать торрент Коты-Самураи Kyatto Ninden Teyandee . Будь первым!

!Обратная связь