Скачать через торрент Рой Вуд Мл. - Пример для подражания Roy Wood Jr - Father figure Фильм бесплатно в хорошем качестве torrent

Скачивайте на UnionPeer.org фильмы через торрент без регистрации. Новинки кино в хорошем качестве через торрент. На UnionPeer.org можно скачать через торрент фильмы 2014 и 2015 годов. Самые новые фильмы.

Скачать торрент Рой Вуд Мл. - Пример для подражания Roy Wood Jr - Father figure бесплатно через .torrent фильм мультфильм сериал

Если у вас наблюдаются проблемы со скриншотами, переходом по ссылками, скачиванием торрентов - проблемы в блокировщике рекламы AdBlock. #хорошегоДня!


Статистика раздачи
Размер:  1.54 GB   |    Зарегистрирован:  4 месяца 9 дней   |    .torrent скачан:  23 раза   |   
Раздают:  1  
   
Загрузка...
 
Автор Сообщение

Galfimbul

avatar Galfimbul


Рой Вуд Мл. - Пример для подражания / Roy Wood Jr - Father figure

Дата/Год выпуска: 19.02.2017
Страна: U.S.A.
Жанр: Stand up
Продолжительность: 00:50:10
Перевод: Субтитры
Русские субтитры: есть

Формат субтитров: softsub (SRT)
Оригинальная аудиодорожка: английский
Режиссер: Шеннон Хартман

Телеканал: Comedy Central
Описание: Перевод официального описания: Рой Вуд Мл. касается темы уличных протестов, рассуждает на тему происхождения блюза и объясняет, почему в некоторых ситуациях флаг конфедератов может оказатся полезным.

Доп. информация: Перевод любительский, от пользователя daskilet. Внимание: присутствует ненормативная лексика.

Сэмпл: http://www.mediafire.com/file/paa6cz6iaierjji/sample_wood_jr.mkv

качество: WEBRip
формат: MKV
Видео: AVC, 1920x1080, 16:9, 4272 kbps, 23.976
Аудио: AAC, 128kbps, 48.0 kHz, 2ch
GeneralComplete name : Roy_Wood_Jr-Father_Figure.mkvFormat : MatroskaFormat version : Version 4 / Version 2File size : 1.54 GiBDuration : 50 min 10 sOverall bit rate : 4 403 kb/sEncoded date : UTC 2017-08-05 06:19:56Writing application : mkvmerge v14.0.0 ('Flow') 32bitWriting library : libebml v1.3.4 + libmatroska v1.4.7

VideoID : 1Format : AVCFormat/Info : Advanced Video CodecFormat profile : High@L4Format settings, CABAC : YesFormat settings, RefFrames : 4 framesCodec ID : V_MPEG4/ISO/AVCDuration : 50 min 10 sBit rate : 4 272 kb/sWidth : 1 920 pixelsHeight : 1 080 pixelsDisplay aspect ratio : 16:9Frame rate mode : ConstantFrame rate : 23.976 (24000/1001) FPSColor space : YUVChroma subsampling : 4:2:0Bit depth : 8 bitsScan type : ProgressiveBits/(Pixel*Frame) : 0.086Stream size : 1.50 GiB (97%)Title : H.264Writing library : x264 core 138Encoding settings : cabac=1 / ref=4 / deblock=1:0:0 / analyse=0x3:0x113 / me=umh / subme=10 / psy=1 / psy_rd=1.00:0.15 / mixed_ref=1 / me_range=32 / chroma_me=1 / trellis=2 / 8x8dct=1 / cqm=0 / deadzone=21,11 / fast_pskip=1 / chroma_qp_offset=-3 / threads=32 / lookahead_threads=2 / sliced_threads=0 / nr=0 / decimate=0 / interlaced=0 / bluray_compat=0 / constrained_intra=0 / bframes=3 / b_pyramid=0 / b_adapt=2 / b_bias=0 / direct=3 / weightb=1 / open_gop=0 / weightp=2 / keyint=48 / keyint_min=23 / scenecut=0 / intra_refresh=0 / rc_lookahead=48 / rc=crf / mbtree=1 / crf=19.0 / qcomp=0.60 / qpmin=10 / qpmax=51 / qpstep=4 / vbv_maxrate=5000 / vbv_bufsize=10000 / crf_max=0.0 / nal_hrd=none / filler=0 / ip_ratio=1.40 / aq=1:0.80Default : YesForced : No

AudioID : 2Format : AACFormat/Info : Advanced Audio CodecFormat profile : LCCodec ID : A_AACDuration : 50 min 10 sBit rate : 128 kb/sChannel(s) : 2 channelsChannel positions : Front: L RSampling rate : 48.0 kHzFrame rate : 46.875 FPS (1024 SPF)Compression mode : LossyStream size : 46.0 MiB (3%)Title : AAC2.0Language : EnglishDefault : YesForced : No


Трекер:  [ 06-Авг-2017 11:42 ]

  

Скачать .torrent

Размер .torrent файла 124 KB


Размер: 1.54 GB
Хэш (hash) релиза: b253ce8d01df58407ffee3e3683fc712ec346118
Подписка на обновления:

Еще никто не оставлял запись к записи скачать торрент Рой Вуд Мл. - Пример для подражания Roy Wood Jr - Father figure . Будь первым!

!Обратная связь