Скачать через торрент Квартет Ч. Разборка в Гонконге Fantastic Four: Rise of the Silver Surfer Фильм бесплатно в хорошем качестве torrent

Скачивайте на UnionPeer.org фильмы через торрент без регистрации. Новинки кино в хорошем качестве через торрент. На UnionPeer.org можно скачать через торрент фильмы 2014 и 2015 годов. Самые новые фильмы.

Скачать торрент Квартет Ч. Разборка в Гонконге Fantastic Four: Rise of the Silver Surfer бесплатно через .torrent фильм мультфильм сериал

Если у вас наблюдаются проблемы со скриншотами, переходом по ссылками, скачиванием торрентов - проблемы в блокировщике рекламы AdBlock. #хорошегоДня!


Статистика раздачи
Размер:  1.42 GB   |    Зарегистрирован:  4 месяца 6 дней   |    .torrent скачан:  34 раза   |   
Раздают:  1  
   
Загрузка...
 
Автор Сообщение

Galfimbul

avatar Galfimbul


Квартет Ч. Разборка в Гонконге / Fantastic Four: Rise of the Silver Surfer

Год выпуска: 2017
Страна: США, Германия, Великобритания
Жанр: пародия, комедия, фантастика, юмористический перевод
Продолжительность: 01:26:33
Перевод: любительский одноголосый (смешной перевод от Безопасная запись prod)
Режиссер: Тим Стори, EgaZoom
В ролях: Йоан Гриффит, Джессика Альба, Крис Эванс, Майкл Чиклис, Джулиан МакМэхон, Керри Вашингтон, Андре Брогер, Лоренс Фишбёрн, Даг Джонс, Бо Гарретт

Описание: Москва, 2011 год, январь, +20 градусов тепла. Благодаря своим заслугам, Квартет Ч стал известен на всю Россию, и теперь вся страна с нетерпением ждет свадьбы Рафика и Сони. На фоне этих оживленных событий остаются незамеченными природные катаклизмы, происходящие по всему миру, а также исчезновение пресных водоемов. Лишь министр обороны решает выяснить причины изменения климата, заручившись помощью Квартета. В ходе расследования выяснилось: везде, где происходят необычные явления, в воздухе остаются генопластические следы, а это уже попахивает столкновением с мощной космической энергией…

Семпл

Файл
Кодек: XviD
Качество: HDRip
Видео: 720x304 (2.37:1), 23.976 fps, XviD, ~2 152 kbps avg, 0.410 bit/pixel
Звук: 48 kHz, MPEG Layer 3, 2 ch, ~192.00 kbps avg
GeneralComplete name : E:\___фильмы\Kvartet.4.Razborka.v.Gonkonge.2017.HDRip.aviFormat : AVIFormat/Info : Audio Video InterleaveFile size : 1.42 GiBDuration : 1h 26mnOverall bit rate : 2 354 Kbps

VideoID : 0Format : MPEG-4 VisualFormat profile : AdvancedSimple@L5Format settings, BVOP : YesFormat settings, QPel : NoFormat settings, GMC : No warppointsFormat settings, Matrix : Default (MPEG)Codec ID : XVIDCodec ID/Hint : XviDDuration : 1h 26mnBit rate : 2 152 KbpsWidth : 720 pixelsHeight : 304 pixelsDisplay aspect ratio : 2.35:1Frame rate : 23.976 fpsResolution : 24 bitsColorimetry : 4:2:0Scan type : ProgressiveBits/(Pixel*Frame) : 0.410Stream size : 1.30 GiB (91%)Writing library : XviD 64

AudioID : 1Format : MPEG AudioFormat version : Version 1Format profile : Layer 3Codec ID : 55Codec ID/Hint : MP3Duration : 1h 26mnBit rate mode : ConstantBit rate : 192 KbpsChannel(s) : 2 channelsSampling rate : 48.0 KHzResolution : 16 bitsStream size : 119 MiB (8%)Alignment : Split accross interleavesInterleave, duration : 42 ms (1.00 video frame)Writing library : LAMELAME_MAJOR_VERSI


Трекер:  [ 08-Авг-2017 13:42 ]

  

Скачать .torrent

Размер .torrent файла 14 KB


Размер: 1.42 GB
Хэш (hash) релиза: 821576fea4230d6dbfedb60dfab4d0b3c729cabf
Подписка на обновления:

Еще никто не оставлял запись к записи скачать торрент Квартет Ч. Разборка в Гонконге Fantastic Four: Rise of the Silver Surfer . Будь первым!

!Обратная связь