Скачать через торрент Китай, Иллинойс China, IL Фильм бесплатно в хорошем качестве torrent

Скачивайте на UnionPeer.org фильмы через торрент без регистрации. Новинки кино в хорошем качестве через торрент. На UnionPeer.org можно скачать через торрент фильмы 2014 и 2015 годов. Самые новые фильмы.

Скачать торрент Китай, Иллинойс China, IL бесплатно через .torrent фильм мультфильм сериал

Если у вас наблюдаются проблемы со скриншотами, переходом по ссылками, скачиванием торрентов - проблемы в блокировщике рекламы AdBlock. #хорошегоДня!


Статистика раздачи
Размер:  9.76 GB   |    Зарегистрирован:  3 месяца 30 дней   |    .torrent скачан:  24 раза   |   
Раздают:  1  
   
Загрузка...
 
Автор Сообщение

Galfimbul

avatar Galfimbul


Китай, Иллинойс / China, IL

Страна: США
Жанр: комедия
Продолжительность серии: 22 мин.
Год выпуска: 2015

Перевод: Профессиональный (многоголосый закадровый) /2x2/

Запись: #Antisnl#
Сведение: Beer kolesik Drinkers

Режиссёр: Брэд Нили / Brad Neely

Описание: Днем эти типичные универские преподы рассказывают о войсках Чингисхана и истории освобождения Америки, а ночью — путешествуют во времени, убивают оборотней, бьют морды бывшим президентам и творят дестрой. Острая сатира, оригинальный юмор, приятная рисовка, шикарные выражения, из которых можно составить неплохой цитатник. Этот анимационный сериал сделал все, чтобы вы полюбили его — и вы полюбите, если дадите ему шанс.

Доп. информация: Показ начали сразу с 3-го сезона (почему так, спрашивайте у телеканала)

Качество: WEB-DL 1080p
Формат: MKV
Видео: MPEG-4 AVC, 1916x1076, 23.976, 5050 kbps
Аудио Rus: AC3 Dolby Digital, 2 ch, 192 kbps, 48 kHz
Аудио Eng: AC3 Dolby Digital, 6 ch, 384 kbps, 48 kHz
Субтитры: отсутствуют

Сэмпл
01 - A Gentleman's Bet
02 - Best Face Forward
03 - Charlize
04 - Crow College
05 - Bi-Topping-Ality
06 - Parent's Day
07 - Displays of Manhood
08 - LIfe Coaches
09 - Gummie World
10 - Magical Pet
GeneralUnique ID : 204416535674530259212861456504074930568 (0x99C93155FD59C628A30067F50F860988)Complete name : D:\Раздачи\China.IL.S03.1080p.WEB-DL.H.264-BkD\China.IL.S03E01.A.Gentleman's.Bet.1080p.WEB-DL.H.264-BkD.mkvFormat : MatroskaFormat version : Version 4 / Version 2File size : 909 MiBDuration : 22 min 34 sOverall bit rate : 5 629 kb/sEncoded date : UTC 2017-06-09 20:52:06Writing application : mkvmerge v8.2.0 ('World of Adventure') 64bitWriting library : libebml v1.3.1 + libmatroska v1.4.2

VideoID : 1Format : AVCFormat/Info : Advanced Video CodecFormat profile : High@L4Format settings, CABAC : YesFormat settings, ReFrames : 4 framesCodec ID : V_MPEG4/ISO/AVCDuration : 22 min 34 sBit rate : 5 050 kb/sWidth : 1 916 pixelsHeight : 1 076 pixelsDisplay aspect ratio : 16:9Frame rate mode : ConstantFrame rate : 23.976 (23976/1000) FPSColor space : YUVChroma subsampling : 4:2:0Bit depth : 8 bitsScan type : ProgressiveBits/(Pixel*Frame) : 0.102Stream size : 816 MiB (90%)Language : EnglishDefault : YesForced : NoColor range : LimitedColor primaries : BT.709Transfer characteristics : BT.709Matrix coefficients : BT.709

Audio #1ID : 2Format : AC-3Format/Info : Audio Coding 3Mode extension : CM (complete main)Format settings, Endianness : BigCodec ID : A_AC3Duration : 22 min 34 sBit rate mode : ConstantBit rate : 192 kb/sChannel(s) : 2 channelsChannel positions : Front: L RSampling rate : 48.0 kHzFrame rate : 31.250 FPS (1536 spf)Compression mode : LossyStream size : 31.0 MiB (3%)Language : RussianDefault : YesForced : No

Audio #2ID : 3Format : AC-3Format/Info : Audio Coding 3Mode extension : CM (complete main)Format settings, Endianness : BigCodec ID : A_AC3Duration : 22 min 34 sBit rate mode : ConstantBit rate : 384 kb/sChannel(s) : 6 channelsChannel positions : Front: L C R, Side: L R, LFESampling rate : 48.0 kHzFrame rate : 31.250 FPS (1536 spf)Compression mode : LossyStream size : 62.0 MiB (7%)Language : EnglishDefault : NoForced : No


Трекер:  [ 12-Авг-2017 08:54 ]

  

Скачать .torrent

Размер .torrent файла 26 KB


Размер: 9.76 GB
Хэш (hash) релиза: 667c91f1a2edd4875e85705daef1a4780de1ecff
Подписка на обновления:

Еще никто не оставлял запись к записи скачать торрент Китай, Иллинойс China, IL . Будь первым!

!Обратная связь