Скачать через торрент Донни Дарко Donnie Darko Фильм бесплатно в хорошем качестве torrent

Скачивайте на UnionPeer.org фильмы через торрент без регистрации. Новинки кино в хорошем качестве через торрент. На UnionPeer.org можно скачать через торрент фильмы 2014 и 2015 годов. Самые новые фильмы.

Скачать торрент Донни Дарко Donnie Darko бесплатно через .torrent фильм мультфильм сериал

Если у вас наблюдаются проблемы со скриншотами, переходом по ссылками, скачиванием торрентов - проблемы в блокировщике рекламы AdBlock. #хорошегоДня!


Статистика раздачи
Размер:  4.2 GB   |    Зарегистрирован:  3 месяца 29 дней   |    .torrent скачан:  18 раз   |   
Раздают:  1  
   
Загрузка...
 
Автор Сообщение

Galfimbul

avatar Galfimbul


Донни Дарко / Donnie Darko

Страна: США
Жанр: фантастика, триллер, драма, детектив
Год выпуска: 2001
Продолжительность: 01:48:46

Перевод: Профессиональный (многоголосый, закадровый)
Субтитры: русские
Оригинальная аудиодорожка: английская

Режиссер: Ричард Келли / Richard Kelly

В ролях: Джейк Джилленхол, Джена Мэлоун, Мэгги Джилленхол, Мэри МакДоннелл, Холмс Осборн, Патрик Суэйзи, Ноа Уайли, Дрю Бэрримор, Джеймс Дювал, Кэтрин Росс

Описание: К своим 16 годам старшеклассник Донни уже знает, что такое смерть. После несчастного случая, едва не стоившего ему жизни, Донни открывает в себе способности изменять время и судьбу. Перемены, случившиеся с ним, пугают всех, кто его окружает — родителей, сестер, учителей, друзей, любимую девушку.

Меню: есть, статичное

Тип релиза: DVD5
Контейнер: DVD-Video

Видео: PAL 16:9 (720x576(0.387)) MPEG Video, 25,000 кадр/сек, 4013 Кбит/сек
Аудио: Russian (Dolby AC-3, 6ch) 384 Кбит/сек, 48.0 КГц
Аудио 2: English (Dolby AC-3, 6ch) 384 Кбит/сек, 48.0 КГц
Фильм взят с диска "Total DVD". Всё лишнее с этого диска удалено с помощью программы DVDFabPlatinum. Оставлено меню для более удобной навигации по фильму. Сам фильм записан в файлах VTS_28_0 - VTS_28_5. Все остальные файлы - последствия очистки диска от "мусора" (весят они немного, зато меню будет работать нормально).
Общее
Полное имя : Donnie Darko\VIDEO_TS\VTS_28_1.VOB
Формат : MPEG-PS
Размер файла : 1024 Мбайт
Продолжительность : 29 м. 21 с.
Режим общего битрейта : Переменный
Общий поток : 4878 Кбит/сек

Видео
Идентификатор : 224 (0xE0)
Формат : MPEG Video
Версия формата : Version 2
Профиль формата : Main@Main
Параметр BVOP формата : Да
Параметр матрицы формата : Выборочная
Параметр GOP формата : Variable
Структура изображения : Frame
Продолжительность : 29 м. 21 с.
Вид битрейта : Переменный
Битрейт : 4013 Кбит/сек
Максимальный битрейт : 7600 Кбит/сек
Ширина : 720 пикселей
Высота : 576 пикселей
Соотношение сторон : 16:9
Частота кадров : 25,000 кадров/сек
Стандарт вещания : PAL
Цветовое пространство : YUV
Субдискретизация насыщенности : 4:2:0
Битовая глубина : 8 бит
Тип развёртки : Чересстрочная
Порядок развёртки : Верхнее поле первое
Метод сжатия : С потерями
Бит/(Пиксели*Кадры) : 0.387
Временной код первого кадра : 10:00:00:00
Оригинал временного кода : Group of pictures header
GOP, открыто/закрыто : Открыто
Размер потока : 842 Мбайт (82%)

Аудио #1
Идентификатор : 189 (0xBD)-128 (0x80)
Формат : AC-3
Формат/Информация : Audio Coding 3
Параметр Endianness формата : Big
Режим смешивания : DVD-Video
Продолжительность : 29 м. 20 с.
Вид битрейта : Постоянный
Битрейт : 384 Кбит/сек
Каналы : 6 каналов
Расположение каналов : Front: L C R, Side: L R, LFE
Частота : 48,0 КГц
Частота кадров : 31,250 кадров/сек (1536 spf)
Битовая глубина : 16 бит
Метод сжатия : С потерями
Размер потока : 80,6 Мбайт (8%)
ServiceKind/String : Complete Main

Аудио #2
Идентификатор : 189 (0xBD)-129 (0x81)
Формат : AC-3
Формат/Информация : Audio Coding 3
Параметр Endianness формата : Big
Режим смешивания : DVD-Video
Продолжительность : 29 м. 20 с.
Вид битрейта : Постоянный
Битрейт : 384 Кбит/сек
Каналы : 6 каналов
Расположение каналов : Front: L C R, Side: L R, LFE
Частота : 48,0 КГц
Частота кадров : 31,250 кадров/сек (1536 spf)
Битовая глубина : 16 бит
Метод сжатия : С потерями
Размер потока : 80,6 Мбайт (8%)
ServiceKind/String : Complete Main

Текст
Идентификатор : 189 (0xBD)-32 (0x20)
Формат : RLE
Формат/Информация : Run-length encoding
Режим смешивания : DVD-Video


Трекер:  [ 13-Авг-2017 12:06 ]

  

Скачать .torrent

Размер .torrent файла 17 KB


Размер: 4.2 GB
Хэш (hash) релиза: 2971960e4fa003171dea0b10304d2755f3328f80
Подписка на обновления:

Торренты, похожие на Донни Дарко Donnie Darko скачать торрент

Форум Название Автор Размер S L Добавлен
Зарубежные фильмы до 2016 ·· Донни Дарко / Donnie Darko (Ричард Келли / Richard Kelly) [2001, США, фантастика, драма, детектив, BDRemux 1080p] [Театральная Версия / Theatrical Cut] Galfimbul 1861719413817.34 GB 2 0 1500761198

01:06

23-Июл-17

Зарубежные фильмы до 2016 ·· Донни Дарко / Donnie Darko (Ричард Келли / Richard Kelly) [2001, США, фантастика, драма, детектив, BDRip 1080p] [4K Remastered Unrated Extended Cut] 2x MVO (Киномания, Омикрон) + 2x AVO (Гаврилов, Иванов) + VO + Ukr + Original Eng + Sub Rus, Eng Galfimbul 2812588132526.19 GB 0 0 1483618881

15:21

5-Янв-17

Зарубежные фильмы до 2016 ·· Донни Дарко / Donnie Darko (Ричард Келли / Richard Kelly) [2001, США, фантастика, драма, детектив, BDRip 1080p] [4K Remastered Unrated Extended Cut] 2xMVO (Киномания, Омикрон) + 2xAVO (Гаврилов, Иванов) + VO (Есарев) + Ukr (K1) + Original Eng + Subs Galfimbul 2812593567526.19 GB 0 0 1483435097

12:18

3-Янв-17

Зарубежные фильмы до 2016 ·· Донни Дарко / Donnie Darko (Ричард Келли / Richard Kelly) [2001, США, триллер, драма, мистика, детектив, HDRip] [Режиссерская версия] AVO (Андрей Гаврилов) Galfimbul 14700646401.37 GB 0 0 1482081317

20:15

18-Дек-16

Трейлеры и дополнительные материалы ·· Донни Дарко / Donnie Darko (Ричард Келли / Richard Kelly) [2001, Драма | Мистика | Триллер, BDRip] дополнительные материалы Galfimbul 28046222702.61 GB 0 0 1475092573

22:56

28-Сен-16

Зарубежные фильмы до 2016 ·· Донни Дарко / Donnie Darko (Ричард Келли / Richard Kelly) [2001 г., Триллер, драма, мистика, BDRip-AVC] [Театральная Версия] VO Дмитрий Есарев + Sub Eng Rus + Original Eng Galfimbul 22043667212.05 GB 0 0 1393178750

21:05

23-Фев-14

Зарубежные фильмы до 2016 ·· Донни Дарко / Donnie Darko (Ричард Келли / Richard Kelly) [2001 г., фантастика, триллер, мистика, HDRip] [Режиссерская версия / Director's Cut] MVO + Eng + Sub Captain Claw 20126019471.87 GB 0 0 1290620990

20:49

24-Ноя-10

Зарубежные фильмы до 2016 ·· Донни Дарко / Donnie Darko (Ричард Келли / Richard Kelly) [2001 г., Триллер, драма, мистика, BDRip-AVC] [Режиссерская версия] Fiery storm 23452777682.18 GB 0 0 1290620985

20:49

24-Ноя-10

Еще никто не оставлял запись к записи скачать торрент Донни Дарко Donnie Darko . Будь первым!

!Обратная связь