Скачать через торрент Морские дьяволы 1 Сезон: 1 Серии: 1-12 из 12 Фильм бесплатно в хорошем качестве torrent

Скачивайте на UnionPeer.org фильмы через торрент без регистрации. Новинки кино в хорошем качестве через торрент. На UnionPeer.org можно скачать через торрент фильмы 2014 и 2015 годов. Самые новые фильмы.

Скачать торрент Морские дьяволы 1 Сезон: 1 Серии: 1-12 из 12 бесплатно через .torrent фильм мультфильм сериал

Если у вас наблюдаются проблемы со скриншотами, переходом по ссылками, скачиванием торрентов - проблемы в блокировщике рекламы AdBlock. #хорошегоДня!


Статистика раздачи
Размер:  7.69 GB   |    Зарегистрирован:  3 месяца 11 дней   |    .torrent скачан:  9 раз   |   
Раздают:  1  
   
Загрузка...
 
Автор Сообщение

Galfimbul

avatar Galfimbul


Морские дьяволы 1
Год выпуска: 2005
Страна: Россия
Жанр: Боевик, драма, криминал
Продолжительность: ~ 540 минут
Русские субтитры: нетРежиссер: Кирилл Капица, Владимир Праздников В ролях: Олег Чернов, Тара Амирханова, Виктор Смирнов, Игорь Григорьев, Александр Степин, Алексей Макрецкий, Юрий Пусев, Сергей Ионкин, Павел Янутш, Ангелина Боровикова, Иван Паршин, Карина Разумовская, Ян Цапник, Фархад Махмудов, Андрей Носков, Максим Фомин, Юрий Ицков, Сергей Великанов, Александр Карпиловский, Виктор Бабич, Яна Кушаковская, Евгений Гусев, Александр Строев, Дарья Юргенс (Лесникова), Роман Агеев, Василий Шевцов, Антон Багмет, Евгений Иванов, Сергей Гамов, Михаил Богданов, Алексей Байдаков, Сергей Лысов, Юлия Горшенина, Роман Грибков, Наталья Ткаченко, Александр Солдатов, Игорь Григорьев Описание:
Сезон 1 / Серии 1-12
Их четверо. Они — бойцы спецназа. Их называют «морскими дьяволами», хотя по праву их можно считать рыцарями трех стихий: они действуют на земле, в воде и в воздухе. У каждого из них свой характер и своя судьба, но каждый полон решимости выполнить свой профессиональный долг, невзирая на риск. Понятия «братство», «дружба», «офицерская честь» — для них не просто абстракция, а то, чем они дорожат и ради чего готовы пожертвовать жизнью.
Доп. информация:
Анимированное меню; Новинки DVD.
Киностудия: Телекомпания НТВ. Дистрибьютор: Русское счастье Энтертеймент.
Ссылка по фильму:
[КиноПоиск.ru]

Коврик + блин (300 dpi) – прилагаются в папке!
Региональная защита снята!

Качество: DVD9 Сэмпл
Формат: DVD Video
Видео кодек: MPEG2
Аудио кодек: AC3
Видео: PAL 4:3 (352x288) VBR
Аудио: Русский DD 2.0 (224Kbps)
Title: Morskie Diavoli 1_DVD9
Size: 7.69 Gb ( 8 060 628,00 KBytes ) - DVD-9
Enabled regions: 1, 2, 3, 4, 5, 6, 7, 8

VTS_01 :
Play Length: 00:44:23+00:45:53+00:47:38+00:45:53+00:45:09+00:44:04+00:44:59+00:44:12+00:45:53+00:44:13+00:44:27+00:45:04+00:02:18+00:02:42+00:02:10
Video: PAL 4:3 (352x288) VBR
Audio:
English, AC3, 2/0 (L,R) ch, 224 kbps, Delay 0 mSec

* Menus Information *

VIDEO_TS Menu
Video:
PAL 4:3 (720x576) VBR
Audio:
Not specified (Dolby AC3, 2 ch)
English Language Unit :
Title Menu

VTS_01 Menu
Video:
PAL 4:3 (720x576) VBR
Audio:
Not specified (Dolby AC3, 2 ch)
English Language Unit :
Root Menu
Общее
Полное имя : H:\Morskie Diavoli 1-2_2xDVD9\disc 1\VIDEO_TS.BUP
Формат : DVD Video
Профиль формата : Menu
Размер файла : 12,0 Кбайт
Режим общего битрейта : Переменный

Видео
Идентификатор : 224 (0xE0)
Формат : MPEG Video
Версия формата : Version 2
Вид битрейта : Переменный
Ширина : 720 пикселей
Высота : 576 пикселей
Соотношение сторон : 4:3
Частота кадров : 25,000 кадров/сек
Стандарт вещания : PAL
Метод сжатия : С потерями

Аудио
Формат : AC-3
Формат/Информация : Audio Coding 3
Каналы : 2 канала
Частота : 48,0 КГц
Метод сжатия : С потерями

Текст
Формат : RLE
Формат/Информация : Run-length encoding
Битовая глубина : 2 бит

Общее
Полное имя : H:\Morskie Diavoli 1-2_2xDVD9\disc 1\VIDEO_TS.IFO
Формат : DVD Video
Профиль формата : Menu
Размер файла : 12,0 Кбайт
Режим общего битрейта : Переменный

Видео
Идентификатор : 224 (0xE0)
Формат : MPEG Video
Версия формата : Version 2
Вид битрейта : Переменный
Ширина : 720 пикселей
Высота : 576 пикселей
Соотношение сторон : 4:3
Частота кадров : 25,000 кадров/сек
Стандарт вещания : PAL
Метод сжатия : С потерями

Аудио
Формат : AC-3
Формат/Информация : Audio Coding 3
Каналы : 2 канала
Частота : 48,0 КГц
Метод сжатия : С потерями

Текст
Формат : RLE
Формат/Информация : Run-length encoding
Битовая глубина : 2 бит

Общее
Полное имя : H:\Morskie Diavoli 1-2_2xDVD9\disc 1\VIDEO_TS.VOB
Формат : MPEG-PS
Размер файла : 50,4 Мбайт
Продолжительность : 22 с.
Режим общего битрейта : Переменный
Общий поток : 19,1 Мбит/сек

Видео
Идентификатор : 224 (0xE0)
Формат : MPEG Video
Версия формата : Version 2
Профиль формата : Main@Main
Параметр BVOP формата : Да
Параметр матрицы формата : По умолчанию
Параметр GOP формата : M=3, N=12
Продолжительность : 22 с.
Вид битрейта : Переменный
Битрейт : 18,5 Мбит/сек
Максимальный битрейт : 8000 Кбит/сек
Ширина : 720 пикселей
Высота : 576 пикселей
Соотношение сторон : 4:3
Частота кадров : 25,000 кадров/сек
Стандарт вещания : PAL
Цветовое пространство : YUV
Субдискретизация насыщенности : 4:2:0
Битовая глубина : 8 бит
Тип развёртки : Прогрессивная
Метод сжатия : С потерями
Бит/(Пиксели*Кадры) : 1.787
Размер потока : 48,8 Мбайт (97%)
Основные цвета : BT.470-2 System B, BT.470-2 System G
Характеристики трансфера : BT.470-2 System B, BT.470-2 System G
Коэффициенты матрицы : BT.470-2 System B, BT.470-2 System G

Аудио
Идентификатор : 189 (0xBD)-128 (0x80)
Формат : AC-3
Формат/Информация : Audio Coding 3
Расширение режима : CM (complete main)
Режим смешивания : DVD-Video
Продолжительность : 21 с.
Вид битрейта : Постоянный
Битрейт : 224 Кбит/сек
Каналы : 2 канала
Расположение каналов : Front: L R
Частота : 48,0 КГц
Битовая глубина : 16 бит
Метод сжатия : С потерями
Размер потока : 599 Кбайт (1%)

Текст
Идентификатор : 189 (0xBD)-32 (0x20)
Формат : RLE
Формат/Информация : Run-length encoding
Режим смешивания : DVD-Video

Меню

Общее
Полное имя : H:\Morskie Diavoli 1-2_2xDVD9\disc 1\VTS_01_0.BUP
Формат : DVD Video
Профиль формата : Program
Размер файла : 332 Кбайт
Продолжительность : 47 м.
Режим общего битрейта : Переменный
Общий поток : 951 бит/сек

Видео
Идентификатор : 224 (0xE0)
Формат : MPEG Video
Версия формата : Version 2
Продолжительность : 47 м.
Вид битрейта : Переменный
Ширина : 352 пикселя
Высота : 288 пикселей
Соотношение сторон : 4:3
Частота кадров : 25,000 кадров/сек
Стандарт вещания : PAL
Метод сжатия : С потерями

Аудио
Идентификатор : 128 (0x80)
Формат : AC-3
Формат/Информация : Audio Coding 3
Продолжительность : 47 м.
Каналы : 2 канала
Частота : 48,0 КГц
Метод сжатия : С потерями
Язык : English

Меню #1
Продолжительность : 44 м.
00:00:00.000 : Chapter 1
00:05:38.920 : Chapter 2
00:11:08.320 : Chapter 3
00:16:42.520 : Chapter 4
00:22:34.720 : Chapter 5
00:28:14.320 : Chapter 6
00:33:29.920 : Chapter 7
00:38:50.920 : Chapter 8
List (Audio) : 0

Меню #2
Продолжительность : 45 м.
00:00:00.000 : Chapter 1
00:05:48.520 : Chapter 2
00:11:30.520 : Chapter 3
00:17:22.720 : Chapter 4
00:23:11.320 : Chapter 5
00:28:50.920 : Chapter 6
00:34:48.520 : Chapter 7
00:40:11.320 : Chapter 8
List (Audio) : 0

Меню #3
Продолжительность : 47 м.
00:00:00.000 : Chapter 1
00:06:02.320 : Chapter 2
00:11:55.120 : Chapter 3
00:17:58.120 : Chapter 4
00:23:48.520 : Chapter 5
00:30:12.520 : Chapter 6
00:35:50.320 : Chapter 7
00:42:59.920 : Chapter 8
List (Audio) : 0

Меню #4
Продолжительность : 45 м.
00:00:00.000 : Chapter 1
00:05:53.320 : Chapter 2
00:11:28.720 : Chapter 3
00:17:13.120 : Chapter 4
00:23:09.520 : Chapter 5
00:28:53.320 : Chapter 6
00:35:14.920 : Chapter 7
00:40:11.920 : Chapter 8
List (Audio) : 0

Меню #5
Продолжительность : 45 м.
00:00:00.000 : Chapter 1
00:05:49.720 : Chapter 2
00:11:16.720 : Chapter 3
00:16:56.320 : Chapter 4
00:22:38.920 : Chapter 5
00:28:11.320 : Chapter 6
00:34:08.320 : Chapter 7
00:39:26.920 : Chapter 8
List (Audio) : 0

Меню #6
Продолжительность : 44 м.
00:00:00.000 : Chapter 1
00:05:31.720 : Chapter 2
00:11:03.520 : Chapter 3
00:16:32.920 : Chapter 4
00:22:11.320 : Chapter 5
00:27:32.320 : Chapter 6
00:33:29.320 : Chapter 7
00:38:33.520 : Chapter 8
List (Audio) : 0

Меню #7
Продолжительность : 44 м.
00:00:00.000 : Chapter 1
00:05:42.520 : Chapter 2
00:11:16.720 : Chapter 3
00:16:53.320 : Chapter 4
00:22:30.520 : Chapter 5
00:28:21.520 : Chapter 6
00:33:46.120 : Chapter 7
00:39:20.320 : Chapter 8
List (Audio) : 0

Меню #8
Продолжительность : 44 м.
00:00:00.000 : Chapter 1
00:05:33.520 : Chapter 2
00:11:06.520 : Chapter 3
00:16:59.920 : Chapter 4
00:22:14.920 : Chapter 5
00:27:43.120 : Chapter 6
00:33:08.320 : Chapter 7
00:38:38.320 : Chapter 8
List (Audio) : 0

Меню #9
Продолжительность : 45 м.
00:00:00.000 : Chapter 1
00:05:52.120 : Chapter 2
00:11:29.920 : Chapter 3
00:17:12.520 : Chapter 4
00:23:02.920 : Chapter 5
00:28:40.120 : Chapter 6
00:34:22.720 : Chapter 7
00:40:07.720 : Chapter 8
List (Audio) : 0

Меню #10
Продолжительность : 44 м.
00:00:00.000 : Chapter 1
00:05:34.720 : Chapter 2
00:11:07.120 : Chapter 3
00:16:41.920 : Chapter 4
00:22:14.320 : Chapter 5
00:27:40.120 : Chapter 6
00:33:07.720 : Chapter 7
00:38:52.120 : Chapter 8
List (Audio) : 0

Меню #11
Продолжительность : 44 м.
00:00:00.000 : Chapter 1
00:05:35.320 : Chapter 2
00:11:08.920 : Chapter 3
00:16:46.120 : Chapter 4
00:22:24.520 : Chapter 5
00:27:47.320 : Chapter 6
00:33:28.120 : Chapter 7
00:38:52.720 : Chapter 8
List (Audio) : 0

Меню #12
Продолжительность : 45 м.
00:00:00.000 : Chapter 1
00:05:42.520 : Chapter 2
00:11:23.320 : Chapter 3
00:17:05.920 : Chapter 4
00:22:41.320 : Chapter 5
00:28:25.120 : Chapter 6
00:33:53.320 : Chapter 7
00:39:46.120 : Chapter 8
List (Audio) : 0

Меню #13
Продолжительность : 2 м. 18 с.
00:00:00.000 : Chapter 1
List (Audio) : 0

Общее
Полное имя : H:\Morskie Diavoli 1-2_2xDVD9\disc 1\VTS_01_0.IFO
Формат : DVD Video
Профиль формата : Program
Размер файла : 332 Кбайт
Продолжительность : 47 м.
Режим общего битрейта : Переменный
Общий поток : 951 бит/сек

Видео
Идентификатор : 224 (0xE0)
Формат : MPEG Video
Версия формата : Version 2
Продолжительность : 47 м.
Вид битрейта : Переменный
Ширина : 352 пикселя
Высота : 288 пикселей
Соотношение сторон : 4:3
Частота кадров : 25,000 кадров/сек
Стандарт вещания : PAL
Метод сжатия : С потерями

Аудио
Идентификатор : 128 (0x80)
Формат : AC-3
Формат/Информация : Audio Coding 3
Продолжительность : 47 м.
Каналы : 2 канала
Частота : 48,0 КГц
Метод сжатия : С потерями
Язык : English

Меню #1
Продолжительность : 44 м.
00:00:00.000 : Chapter 1
00:05:38.920 : Chapter 2
00:11:08.320 : Chapter 3
00:16:42.520 : Chapter 4
00:22:34.720 : Chapter 5
00:28:14.320 : Chapter 6
00:33:29.920 : Chapter 7
00:38:50.920 : Chapter 8
List (Audio) : 0

Меню #2
Продолжительность : 45 м.
00:00:00.000 : Chapter 1
00:05:48.520 : Chapter 2
00:11:30.520 : Chapter 3
00:17:22.720 : Chapter 4
00:23:11.320 : Chapter 5
00:28:50.920 : Chapter 6
00:34:48.520 : Chapter 7
00:40:11.320 : Chapter 8
List (Audio) : 0

Меню #3
Продолжительность : 47 м.
00:00:00.000 : Chapter 1
00:06:02.320 : Chapter 2
00:11:55.120 : Chapter 3
00:17:58.120 : Chapter 4
00:23:48.520 : Chapter 5
00:30:12.520 : Chapter 6
00:35:50.320 : Chapter 7
00:42:59.920 : Chapter 8
List (Audio) : 0

Меню #4
Продолжительность : 45 м.
00:00:00.000 : Chapter 1
00:05:53.320 : Chapter 2
00:11:28.720 : Chapter 3
00:17:13.120 : Chapter 4
00:23:09.520 : Chapter 5
00:28:53.320 : Chapter 6
00:35:14.920 : Chapter 7
00:40:11.920 : Chapter 8
List (Audio) : 0

Меню #5
Продолжительность : 45 м.
00:00:00.000 : Chapter 1
00:05:49.720 : Chapter 2
00:11:16.720 : Chapter 3
00:16:56.320 : Chapter 4
00:22:38.920 : Chapter 5
00:28:11.320 : Chapter 6
00:34:08.320 : Chapter 7
00:39:26.920 : Chapter 8
List (Audio) : 0

Меню #6
Продолжительность : 44 м.
00:00:00.000 : Chapter 1
00:05:31.720 : Chapter 2
00:11:03.520 : Chapter 3
00:16:32.920 : Chapter 4
00:22:11.320 : Chapter 5
00:27:32.320 : Chapter 6
00:33:29.320 : Chapter 7
00:38:33.520 : Chapter 8
List (Audio) : 0

Меню #7
Продолжительность : 44 м.
00:00:00.000 : Chapter 1
00:05:42.520 : Chapter 2
00:11:16.720 : Chapter 3
00:16:53.320 : Chapter 4
00:22:30.520 : Chapter 5
00:28:21.520 : Chapter 6
00:33:46.120 : Chapter 7
00:39:20.320 : Chapter 8
List (Audio) : 0

Меню #8
Продолжительность : 44 м.
00:00:00.000 : Chapter 1
00:05:33.520 : Chapter 2
00:11:06.520 : Chapter 3
00:16:59.920 : Chapter 4
00:22:14.920 : Chapter 5
00:27:43.120 : Chapter 6
00:33:08.320 : Chapter 7
00:38:38.320 : Chapter 8
List (Audio) : 0

Меню #9
Продолжительность : 45 м.
00:00:00.000 : Chapter 1
00:05:52.120 : Chapter 2
00:11:29.920 : Chapter 3
00:17:12.520 : Chapter 4
00:23:02.920 : Chapter 5
00:28:40.120 : Chapter 6
00:34:22.720 : Chapter 7
00:40:07.720 : Chapter 8
List (Audio) : 0

Меню #10
Продолжительность : 44 м.
00:00:00.000 : Chapter 1
00:05:34.720 : Chapter 2
00:11:07.120 : Chapter 3
00:16:41.920 : Chapter 4
00:22:14.320 : Chapter 5
00:27:40.120 : Chapter 6
00:33:07.720 : Chapter 7
00:38:52.120 : Chapter 8
List (Audio) : 0

Меню #11
Продолжительность : 44 м.
00:00:00.000 : Chapter 1
00:05:35.320 : Chapter 2
00:11:08.920 : Chapter 3
00:16:46.120 : Chapter 4
00:22:24.520 : Chapter 5
00:27:47.320 : Chapter 6
00:33:28.120 : Chapter 7
00:38:52.720 : Chapter 8
List (Audio) : 0

Меню #12
Продолжительность : 45 м.
00:00:00.000 : Chapter 1
00:05:42.520 : Chapter 2
00:11:23.320 : Chapter 3
00:17:05.920 : Chapter 4
00:22:41.320 : Chapter 5
00:28:25.120 : Chapter 6
00:33:53.320 : Chapter 7
00:39:46.120 : Chapter 8
List (Audio) : 0

Меню #13
Продолжительность : 2 м. 18 с.
00:00:00.000 : Chapter 1
List (Audio) : 0

Общее
Полное имя : H:\Morskie Diavoli 1-2_2xDVD9\disc 1\VTS_01_0.VOB
Формат : MPEG-PS
Размер файла : 30,0 Мбайт
Продолжительность : 30 с.
Режим общего битрейта : Переменный
Общий поток : 8382 Кбит/сек

Видео
Идентификатор : 224 (0xE0)
Формат : MPEG Video
Версия формата : Version 2
Профиль формата : Main@Main
Параметр BVOP формата : Да
Параметр матрицы формата : По умолчанию
Параметр GOP формата : M=3, N=12
Продолжительность : 30 с.
Вид битрейта : Переменный
Битрейт : 7991 Кбит/сек
Максимальный битрейт : 8000 Кбит/сек
Ширина : 720 пикселей
Высота : 576 пикселей
Соотношение сторон : 4:3
Частота кадров : 25,000 кадров/сек
Стандарт вещания : PAL
Цветовое пространство : YUV
Субдискретизация насыщенности : 4:2:0
Битовая глубина : 8 бит
Тип развёртки : Прогрессивная
Метод сжатия : С потерями
Бит/(Пиксели*Кадры) : 0.771
Размер потока : 28,6 Мбайт (95%)
Основные цвета : BT.470-2 System B, BT.470-2 System G
Характеристики трансфера : BT.470-2 System B, BT.470-2 System G
Коэффициенты матрицы : BT.470-2 System B, BT.470-2 System G

Аудио
Идентификатор : 189 (0xBD)-128 (0x80)
Формат : AC-3
Формат/Информация : Audio Coding 3
Расширение режима : CM (complete main)
Режим смешивания : DVD-Video
Продолжительность : 29 с.
Вид битрейта : Постоянный
Битрейт : 224 Кбит/сек
Каналы : 2 канала
Расположение каналов : Front: L R
Частота : 48,0 КГц
Битовая глубина : 16 бит
Метод сжатия : С потерями
Размер потока : 815 Кбайт (3%)

Текст
Идентификатор : 189 (0xBD)-32 (0x20)
Формат : RLE
Формат/Информация : Run-length encoding
Режим смешивания : DVD-Video

Меню

Общее
Полное имя : H:\Morskie Diavoli 1-2_2xDVD9\disc 1\VTS_01_1.VOB
Формат : MPEG-PS
Размер файла : 954 Мбайт
Продолжительность : 22 м.
Режим общего битрейта : Переменный
Общий поток : 5859 Кбит/сек

Видео
Идентификатор : 224 (0xE0)
Формат : MPEG Video
Версия формата : Version 2
Параметр BVOP формата : Да
Параметр матрицы формата : По умолчанию
Продолжительность : 22 м.
Вид битрейта : Переменный
Битрейт : 5519 Кбит/сек
Ширина : 352 пикселя
Высота : 288 пикселей
Соотношение сторон : 1,222
Частота кадров : 25,000 кадров/сек
Стандарт вещания : PAL
Цветовое пространство : YUV
Битовая глубина : 8 бит
Тип развёртки : Прогрессивная
Метод сжатия : С потерями
Бит/(Пиксели*Кадры) : 2.177
Размер потока : 898 Мбайт (94%)

Аудио
Идентификатор : 189 (0xBD)-128 (0x80)
Формат : AC-3
Формат/Информация : Audio Coding 3
Расширение режима : CM (complete main)
Режим смешивания : DVD-Video
Продолжительность : 22 м.
Вид битрейта : Постоянный
Битрейт : 224 Кбит/сек
Каналы : 2 канала
Расположение каналов : Front: L R
Частота : 48,0 КГц
Битовая глубина : 16 бит
Метод сжатия : С потерями
Размер потока : 36,5 Мбайт (4%)

Меню

Общее
Полное имя : H:\Morskie Diavoli 1-2_2xDVD9\disc 1\VTS_01_2.VOB
Формат : MPEG-PS
Размер файла : 954 Мбайт
Продолжительность : 21 м.
Режим общего битрейта : Переменный
Общий поток : 6272 Кбит/сек

Видео
Идентификатор : 224 (0xE0)
Формат : MPEG Video
Версия формата : Version 2
Параметр BVOP формата : Да
Параметр матрицы формата : По умолчанию
Продолжительность : 21 м.
Вид битрейта : Переменный
Битрейт : 5923 Кбит/сек
Ширина : 352 пикселя
Высота : 288 пикселей
Соотношение сторон : 1,222
Частота кадров : 25,000 кадров/сек
Стандарт вещания : PAL
Цветовое пространство : YUV
Битовая глубина : 8 бит
Тип развёртки : Прогрессивная
Метод сжатия : С потерями
Бит/(Пиксели*Кадры) : 2.337
Размер потока : 901 Мбайт (94%)

Аудио
Идентификатор : 189 (0xBD)-128 (0x80)
Формат : AC-3
Формат/Информация : Audio Coding 3
Расширение режима : CM (complete main)
Режим смешивания : DVD-Video
Продолжительность : 21 м.
Вид битрейта : Постоянный
Битрейт : 224 Кбит/сек
Каналы : 2 канала
Расположение каналов : Front: L R
Частота : 48,0 КГц
Битовая глубина : 16 бит
Метод сжатия : С потерями
Задержка видео : -256 мс.
Размер потока : 34,1 Мбайт (4%)

Меню

Общее
Полное имя : H:\Morskie Diavoli 1-2_2xDVD9\disc 1\VTS_01_3.VOB
Формат : MPEG-PS
Размер файла : 954 Мбайт
Продолжительность : 20 с.
Режим общего битрейта : Переменный
Общий поток : 392 Мбит/сек

Видео
Идентификатор : 224 (0xE0)
Формат : MPEG Video
Версия формата : Version 2
Параметр BVOP формата : Да
Параметр матрицы формата : По умолчанию
Продолжительность : 20 с.
Вид битрейта : Переменный
Битрейт : 384 Мбит/сек
Ширина : 352 пикселя
Высота : 288 пикселей
Соотношение сторон : 1,222
Частота кадров : 25,000 кадров/сек
Стандарт вещания : PAL
Цветовое пространство : YUV
Битовая глубина : 8 бит
Тип развёртки : Прогрессивная
Метод сжатия : С потерями
Бит/(Пиксели*Кадры) : 151.570
Размер потока : 934 Мбайт (98%)

Аудио
Идентификатор : 189 (0xBD)-128 (0x80)
Формат : AC-3
Формат/Информация : Audio Coding 3
Расширение режима : CM (complete main)
Режим смешивания : DVD-Video
Продолжительность : 20 с.
Вид битрейта : Постоянный
Битрейт : 224 Кбит/сек
Каналы : 2 канала
Расположение каналов : Front: L R
Частота : 48,0 КГц
Битовая глубина : 16 бит
Метод сжатия : С потерями
Задержка видео : -240 мс.
Размер потока : 558 Кбайт (0%)

Меню

Общее
Полное имя : H:\Morskie Diavoli 1-2_2xDVD9\disc 1\VTS_01_4.VOB
Формат : MPEG-PS
Размер файла : 954 Мбайт
Продолжительность : 21 м.
Режим общего битрейта : Переменный
Общий поток : 6061 Кбит/сек

Видео
Идентификатор : 224 (0xE0)
Формат : MPEG Video
Версия формата : Version 2
Параметр BVOP формата : Да
Параметр матрицы формата : По умолчанию
Продолжительность : 21 м.
Вид битрейта : Переменный
Битрейт : 5716 Кбит/сек
Ширина : 352 пикселя
Высота : 288 пикселей
Соотношение сторон : 1,222
Частота кадров : 25,000 кадров/сек
Стандарт вещания : PAL
Цветовое пространство : YUV
Битовая глубина : 8 бит
Тип развёртки : Прогрессивная
Метод сжатия : С потерями
Бит/(Пиксели*Кадры) : 2.255
Размер потока : 899 Мбайт (94%)

Аудио
Идентификатор : 189 (0xBD)-128 (0x80)
Формат : AC-3
Формат/Информация : Audio Coding 3
Расширение режима : CM (complete main)
Режим смешивания : DVD-Video
Продолжительность : 21 м.
Вид битрейта : Постоянный
Битрейт : 224 Кбит/сек
Каналы : 2 канала
Расположение каналов : Front: L R
Частота : 48,0 КГц
Битовая глубина : 16 бит
Метод сжатия : С потерями
Задержка видео : -232 мс.
Размер потока : 35,2 Мбайт (4%)

Меню

Общее
Полное имя : H:\Morskie Diavoli 1-2_2xDVD9\disc 1\VTS_01_5.VOB
Формат : MPEG-PS
Размер файла : 954 Мбайт
Продолжительность : 19 с.
Режим общего битрейта : Переменный
Общий поток : 404 Мбит/сек

Видео
Идентификатор : 224 (0xE0)
Формат : MPEG Video
Версия формата : Version 2
Параметр BVOP формата : Да
Параметр матрицы формата : По умолчанию
Продолжительность : 19 с.
Вид битрейта : Переменный
Битрейт : 396 Мбит/сек
Ширина : 352 пикселя
Высота : 288 пикселей
Соотношение сторон : 1,222
Частота кадров : 25,000 кадров/сек
Стандарт вещания : PAL
Цветовое пространство : YUV
Битовая глубина : 8 бит
Тип развёртки : Прогрессивная
Метод сжатия : С потерями
Бит/(Пиксели*Кадры) : 156.185
Размер потока : 934 Мбайт (98%)

Аудио
Идентификатор : 189 (0xBD)-128 (0x80)
Формат : AC-3
Формат/Информация : Audio Coding 3
Расширение режима : CM (complete main)
Режим смешивания : DVD-Video
Продолжительность : 19 с.
Вид битрейта : Постоянный
Битрейт : 224 Кбит/сек
Каналы : 2 канала
Расположение каналов : Front: L R
Частота : 48,0 КГц
Битовая глубина : 16 бит
Метод сжатия : С потерями
Задержка видео : -264 мс.
Размер потока : 541 Кбайт (0%)

Меню

Общее
Полное имя : H:\Morskie Diavoli 1-2_2xDVD9\disc 1\VTS_01_6.VOB
Формат : MPEG-PS
Размер файла : 954 Мбайт
Продолжительность : 22 м.
Режим общего битрейта : Переменный
Общий поток : 5822 Кбит/сек

Видео
Идентификатор : 224 (0xE0)
Формат : MPEG Video
Версия формата : Version 2
Параметр BVOP формата : Да
Параметр матрицы формата : По умолчанию
Продолжительность : 22 м.
Вид битрейта : Переменный
Битрейт : 5482 Кбит/сек
Ширина : 352 пикселя
Высота : 288 пикселей
Соотношение сторон : 1,222
Частота кадров : 25,000 кадров/сек
Стандарт вещания : PAL
Цветовое пространство : YUV
Битовая глубина : 8 бит
Тип развёртки : Прогрессивная
Метод сжатия : С потерями
Бит/(Пиксели*Кадры) : 2.163
Размер потока : 898 Мбайт (94%)

Аудио
Идентификатор : 189 (0xBD)-128 (0x80)
Формат : AC-3
Формат/Информация : Audio Coding 3
Расширение режима : CM (complete main)
Режим смешивания : DVD-Video
Продолжительность : 22 м.
Вид битрейта : Постоянный
Битрейт : 224 Кбит/сек
Каналы : 2 канала
Расположение каналов : Front: L R
Частота : 48,0 КГц
Битовая глубина : 16 бит
Метод сжатия : С потерями
Задержка видео : -248 мс.
Размер потока : 36,7 Мбайт (4%)

Меню

Общее
Полное имя : H:\Morskie Diavoli 1-2_2xDVD9\disc 1\VTS_01_7.VOB
Формат : MPEG-PS
Размер файла : 954 Мбайт
Продолжительность : 21 с.
Режим общего битрейта : Переменный
Общий поток : 370 Мбит/сек

Видео
Идентификатор : 224 (0xE0)
Формат : MPEG Video
Версия формата : Version 2
Параметр BVOP формата : Да
Параметр матрицы формата : По умолчанию
Продолжительность : 21 с.
Вид битрейта : Переменный
Битрейт : 363 Мбит/сек
Ширина : 352 пикселя
Высота : 288 пикселей
Соотношение сторон : 1,222
Частота кадров : 25,000 кадров/сек
Стандарт вещания : PAL
Цветовое пространство : YUV
Битовая глубина : 8 бит
Тип развёртки : Прогрессивная
Метод сжатия : С потерями
Бит/(Пиксели*Кадры) : 143.160
Размер потока : 934 Мбайт (98%)

Аудио
Идентификатор : 189 (0xBD)-128 (0x80)
Формат : AC-3
Формат/Информация : Audio Coding 3
Расширение режима : CM (complete main)
Режим смешивания : DVD-Video
Продолжительность : 21 с.
Вид битрейта : Постоянный
Битрейт : 224 Кбит/сек
Каналы : 2 канала
Расположение каналов : Front: L R
Частота : 48,0 КГц
Битовая глубина : 16 бит
Метод сжатия : С потерями
Задержка видео : -200 мс.
Размер потока : 591 Кбайт (0%)

Меню

Общее
Полное имя : H:\Morskie Diavoli 1-2_2xDVD9\disc 1\VTS_01_8.VOB
Формат : MPEG-PS
Размер файла : 954 Мбайт
Продолжительность : 22 м.
Режим общего битрейта : Переменный
Общий поток : 5879 Кбит/сек

Видео
Идентификатор : 224 (0xE0)
Формат : MPEG Video
Версия формата : Version 2
Параметр BVOP формата : Да
Параметр матрицы формата : По умолчанию
Продолжительность : 22 м.
Вид битрейта : Переменный
Битрейт : 5538 Кбит/сек
Ширина : 352 пикселя
Высота : 288 пикселей
Соотношение сторон : 1,222
Частота кадров : 25,000 кадров/сек
Стандарт вещания : PAL
Цветовое пространство : YUV
Битовая глубина : 8 бит
Тип развёртки : Прогрессивная
Метод сжатия : С потерями
Бит/(Пиксели*Кадры) : 2.185
Размер потока : 898 Мбайт (94%)

Аудио
Идентификатор : 189 (0xBD)-128 (0x80)
Формат : AC-3
Формат/Информация : Audio Coding 3
Расширение режима : CM (complete main)
Режим смешивания : DVD-Video
Продолжительность : 22 м.
Вид битрейта : Постоянный
Битрейт : 224 Кбит/сек
Каналы : 2 канала
Расположение каналов : Front: L R
Частота : 48,0 КГц
Битовая глубина : 16 бит
Метод сжатия : С потерями
Задержка видео : -216 мс.
Размер потока : 36,3 Мбайт (4%)

Меню

Общее
Полное имя : H:\Morskie Diavoli 1-2_2xDVD9\disc 1\VTS_01_9.VOB
Формат : MPEG-PS
Размер файла : 161 Мбайт
Продолжительность : 20 с.
Режим общего битрейта : Переменный
Общий поток : 65,8 Мбит/сек

Видео
Идентификатор : 224 (0xE0)
Формат : MPEG Video
Версия формата : Version 2
Параметр BVOP формата : Да
Параметр матрицы формата : По умолчанию
Продолжительность : 20 с.
Вид битрейта : Переменный
Битрейт : 64,2 Мбит/сек
Ширина : 352 пикселя
Высота : 288 пикселей
Соотношение сторон : 1,222
Частота кадров : 25,000 кадров/сек
Стандарт вещания : PAL
Цветовое пространство : YUV
Битовая глубина : 8 бит
Тип развёртки : Прогрессивная
Метод сжатия : С потерями
Бит/(Пиксели*Кадры) : 25.340
Размер потока : 157 Мбайт (98%)

Аудио
Идентификатор : 189 (0xBD)-128 (0x80)
Формат : AC-3
Формат/Информация : Audio Coding 3
Расширение режима : CM (complete main)
Режим смешивания : DVD-Video
Продолжительность : 20 с.
Вид битрейта : Постоянный
Битрейт : 224 Кбит/сек
Каналы : 2 канала
Расположение каналов : Front: L R
Частота : 48,0 КГц
Битовая глубина : 16 бит
Метод сжатия : С потерями
Задержка видео : -216 мс.
Размер потока : 561 Кбайт (0%)

Меню
Внимание! Диски DVD5 и DVD9 рекомендуется записывать программой ImgBurn.
Руководство по пользованию программой можно прочесть здесь.
Раздача от группы:

Трекер:  [ 05-Сен-2017 13:18 ]

  

Скачать .torrent

Размер .torrent файла 39 KB


Размер: 7.69 GB
Хэш (hash) релиза: 62ebed7aa8957d652e53529a762e7938c486c36d
Подписка на обновления:

Торренты, похожие на Морские дьяволы 1 Сезон: 1 Серии: 1-12 из 12 скачать торрент

Форум Название Автор Размер S L Добавлен
Российские сериалы ·· Морские дьяволы / Сезон: 1 Серии: 12 из 12 (Кирилл Капица, Владимир Праздников) [2005, Боевик, 2хDVD9] Galfimbul 1651044352015.38 GB 0 0 1504607280

13:28

5-Сен-17

Еще никто не оставлял запись к записи скачать торрент Морские дьяволы 1 Сезон: 1 Серии: 1-12 из 12 . Будь первым!

!Обратная связь