Скачать через торрент музыку Твин Пикс Twin Peaks бесплатно без регистрации torrent

Если у вас наблюдаются проблемы со скриншотами, переходом по ссылками, скачиванием торрентов - проблемы в блокировщике рекламы AdBlock. #хорошегоДня!


Статистика раздачи
Размер:  452 MB   |    Зарегистрирован:  3 месяца 5 дней   |    .torrent скачан:  9 раз   |   
Раздают:  1  
   
Загрузка...
 
Автор Сообщение

Galfimbul

avatar Galfimbul


Твин Пикс / Twin Peaks

Название альбома: Twin Peaks (Music from the Limited Event Series)
Жанр: Score
Композитор: Angelo Badalamenti ‎
Год выпуска диска: 2017
Год выпуска фильма: 2017
Страна-производитель диска: USA
Издатель (лейбл): Rhino Records
Номер по каталогу: R2 562527
Аудиокодек: FLAC (*.flac)
Тип рипа: tracks+.cue
Битрейт аудио: lossless
Продолжительность: 01:18:27
Источник: скачано с
сайт-источник/ник/другое: APOLLO
Наличие сканов в содержимом раздачи: нет
Треклист:
01. Angelo Badalamenti – Twin Peaks Main Theme (Edit) (01:29)
02. Chromatics – Shadow (03:44)
03. The Cactus Blossoms – Mississippi (03:59)
04. Au Revoir Simone – Lark (04:15)
05. Blunted Beatz – I Am (01:45)
06. The Paris Sisters – I Love How You Love Me (02:05)
07. Trouble – Snake Eyes (03:52)
08. Sharon Van Etten – Tarifa (Roadhouse Mix) (04:46)
09. Nine Inch Nails – She's Gone Away (06:00)
10. The Platters – My Prayer (02:45)
11. Rebekah Del Rio – No Stars (07:20)
12. Shawn Colvin – Viva Las Vegas (04:46)
13. James Marshall – Just You (03:35)
14. Booker T. & The M.G.'s – Green Onions (02:52)
15. Lissie – Wild West (Roadhouse Mix) (03:39)
16. ZZ Top – Sharp Dressed Man (04:13)
17. The Veils – Axolotl (Roadhouse Mix) (03:03)
18. Eddie Vedder – Out Of Sand (03:26)
19. Otis Redding – I've Been Loving You Too Long (Live From Monterey Pop) (04:05)
20. Julee Cruise – The World Spins (06:38)
Exact Audio Copy V1.1 from 23. June 2015

EAC extraction logfile from 8. September 2017, 20:06

Various Artists / Twin Peaks: Music from the Limited Event Series

Used drive : PIONEER BD-RW BDR-XD05 Adapter: 1 ID: 1

Read mode : SecureUtilize accurate stream : YesDefeat audio cache : YesMake use of C2 pointers : No

Read offset correction : 667Overread into Lead-In and Lead-Out : NoFill up missing offset samples with silence : YesDelete leading and trailing silent blocks : NoNull samples used in CRC calculations : YesUsed interface : Native Win32 interface for Win NT & 2000Gap handling : Appended to previous track

Used output format : User Defined EncoderSelected bitrate : 1024 kBit/sQuality : HighAdd ID3 tag : NoCommand line compressor : C:\Program Files (x86)\Exact Audio Copy\FLAC\FLAC.EXEAdditional command line options : -8 -V -T "ARTIST=%artist%" -T "TITLE=%title%" -T "ALBUM=%albumtitle%" -T "DATE=%year%" -T "TRACKNUMBER=%tracknr%" -T "GENRE=%genre%" -T "PERFORMER=%albuminterpret%" -T "COMPOSER=%composer%" %haslyrics%--tag-from-file=LYRICS="%lyricsfile%"%haslyrics% -T "ALBUMARTIST=%albumartist%" -T "DISCNUMBER=%cdnumber%" -T "TOTALDISCS=%totalcds%" -T "TOTALTRACKS=%numtracks%" -T "COMMENT=%comment%" %source% -o %dest%

TOC of the extracted CD

Track | Start | Length | Start sector | End sector --------------------------------------------------------- 1 | 0:00.00 | 1:29.16 | 0 | 6690 2 | 1:29.16 | 3:44.46 | 6691 | 23536 3 | 5:13.62 | 3:59.52 | 23537 | 41513 4 | 9:13.39 | 4:15.51 | 41514 | 60689 5 | 13:29.15 | 1:45.40 | 60690 | 68604 6 | 15:14.55 | 2:05.25 | 68605 | 78004 7 | 17:20.05 | 3:52.27 | 78005 | 95431 8 | 21:12.32 | 4:46.26 | 95432 | 116907 9 | 25:58.58 | 6:00.58 | 116908 | 143965 10 | 31:59.41 | 2:45.48 | 143966 | 156388 11 | 34:45.14 | 7:20.71 | 156389 | 189459 12 | 42:06.10 | 4:46.64 | 189460 | 210973 13 | 46:52.74 | 3:35.07 | 210974 | 227105 14 | 50:28.06 | 2:52.46 | 227106 | 240051 15 | 53:20.52 | 3:39.04 | 240052 | 256480 16 | 56:59.56 | 4:13.59 | 256481 | 275514 17 | 61:13.40 | 3:03.15 | 275515 | 289254 18 | 64:16.55 | 3:26.71 | 289255 | 304775 19 | 67:43.51 | 4:05.24 | 304776 | 323174 20 | 71:49.00 | 6:38.11 | 323175 | 353035

Track 1

Filename G:\My Storage\Music\New Lossless Rips\Various Artists\VA - Twin Peaks - Music from the Limited Event Series (2017) [FLAC]\01 - Angelo Badalamenti - Twin Peaks Main Theme [Edit].wav

Pre-gap length 0:00:02.00

Peak level 98.8 % Extraction speed 2.2 X Track quality 100.0 % Test CRC 943775B3 Copy CRC 943775B3 Track not present in AccurateRip database Copy OK

Track 2

Filename G:\My Storage\Music\New Lossless Rips\Various Artists\VA - Twin Peaks - Music from the Limited Event Series (2017) [FLAC]\02 - Chromatics - Shadow.wav

Peak level 98.9 % Extraction speed 2.9 X Track quality 100.0 % Test CRC 7999B40C Copy CRC 7999B40C Track not present in AccurateRip database Copy OK

Track 3

Filename G:\My Storage\Music\New Lossless Rips\Various Artists\VA - Twin Peaks - Music from the Limited Event Series (2017) [FLAC]\03 - The Cactus Blossoms - Mississippi.wav

Peak level 97.5 % Extraction speed 2.8 X Track quality 99.9 % Test CRC F9C5F434 Copy CRC F9C5F434 Track not present in AccurateRip database Copy OK

Track 4

Filename G:\My Storage\Music\New Lossless Rips\Various Artists\VA - Twin Peaks - Music from the Limited Event Series (2017) [FLAC]\04 - Au Revoir Simone - Lark.wav

Peak level 96.7 % Extraction speed 3.5 X Track quality 100.0 % Test CRC FE6C04C7 Copy CRC FE6C04C7 Track not present in AccurateRip database Copy OK

Track 5

Filename G:\My Storage\Music\New Lossless Rips\Various Artists\VA - Twin Peaks - Music from the Limited Event Series (2017) [FLAC]\05 - Blunted Beatz - I Am.wav

Peak level 97.1 % Extraction speed 3.1 X Track quality 100.0 % Test CRC C7BFD08C Copy CRC C7BFD08C Track not present in AccurateRip database Copy OK

Track 6

Filename G:\My Storage\Music\New Lossless Rips\Various Artists\VA - Twin Peaks - Music from the Limited Event Series (2017) [FLAC]\06 - The Paris Sisters - I Love How You Love Me.wav

Peak level 82.0 % Extraction speed 3.2 X Track quality 100.0 % Test CRC DCE98DB1 Copy CRC DCE98DB1 Track not present in AccurateRip database Copy OK

Track 7

Filename G:\My Storage\Music\New Lossless Rips\Various Artists\VA - Twin Peaks - Music from the Limited Event Series (2017) [FLAC]\07 - Trouble - Snake Eyes.wav

Peak level 98.8 % Extraction speed 3.8 X Track quality 100.0 % Test CRC 25215174 Copy CRC 25215174 Track not present in AccurateRip database Copy OK

Track 8

Filename G:\My Storage\Music\New Lossless Rips\Various Artists\VA - Twin Peaks - Music from the Limited Event Series (2017) [FLAC]\08 - Sharon Van Etten - Tarifa [Roadhouse Mix].wav

Peak level 98.8 % Extraction speed 4.1 X Track quality 100.0 % Test CRC 447D53E0 Copy CRC 447D53E0 Track not present in AccurateRip database Copy OK

Track 9

Filename G:\My Storage\Music\New Lossless Rips\Various Artists\VA - Twin Peaks - Music from the Limited Event Series (2017) [FLAC]\09 - Nine Inch Nails - She's Gone Away.wav

Peak level 96.8 % Extraction speed 4.4 X Track quality 100.0 % Test CRC 83213D22 Copy CRC 83213D22 Track not present in AccurateRip database Copy OK

Track 10

Filename G:\My Storage\Music\New Lossless Rips\Various Artists\VA - Twin Peaks - Music from the Limited Event Series (2017) [FLAC]\10 - The Platters - My Prayers.wav

Peak level 91.8 % Extraction speed 3.5 X Track quality 99.9 % Test CRC CD99C955 Copy CRC CD99C955 Track not present in AccurateRip database Copy OK

Track 11

Filename G:\My Storage\Music\New Lossless Rips\Various Artists\VA - Twin Peaks - Music from the Limited Event Series (2017) [FLAC]\11 - Rebekah Del Rio - Track11.wav

Peak level 98.8 % Extraction speed 4.8 X Track quality 100.0 % Test CRC F4EC98A6 Copy CRC F4EC98A6 Track not present in AccurateRip database Copy OK

Track 12

Filename G:\My Storage\Music\New Lossless Rips\Various Artists\VA - Twin Peaks - Music from the Limited Event Series (2017) [FLAC]\12 - Shawn Colvin - Viva Las Vegas.wav

Peak level 98.9 % Extraction speed 4.3 X Track quality 99.9 % Test CRC 16E33E9B Copy CRC 16E33E9B Track not present in AccurateRip database Copy OK

Track 13

Filename G:\My Storage\Music\New Lossless Rips\Various Artists\VA - Twin Peaks - Music from the Limited Event Series (2017) [FLAC]\13 - James Marshall - Just You.wav

Peak level 98.8 % Extraction speed 4.2 X Track quality 99.9 % Test CRC 5A4CE9F6 Copy CRC 5A4CE9F6 Track not present in AccurateRip database Copy OK

Track 14

Filename G:\My Storage\Music\New Lossless Rips\Various Artists\VA - Twin Peaks - Music from the Limited Event Series (2017) [FLAC]\14 - Booker T. & the M.G.'s - Green Onions.wav

Peak level 98.9 % Extraction speed 4.0 X Track quality 99.9 % Test CRC FA55397A Copy CRC FA55397A Track not present in AccurateRip database Copy OK

Track 15

Filename G:\My Storage\Music\New Lossless Rips\Various Artists\VA - Twin Peaks - Music from the Limited Event Series (2017) [FLAC]\15 - Lissie - Wild West [Roadhouse Mix].wav

Peak level 98.8 % Extraction speed 5.1 X Track quality 100.0 % Test CRC 71C187BB Copy CRC 71C187BB Track not present in AccurateRip database Copy OK

Track 16

Filename G:\My Storage\Music\New Lossless Rips\Various Artists\VA - Twin Peaks - Music from the Limited Event Series (2017) [FLAC]\16 - ZZ Top - Sharp Dressed Man.wav

Peak level 96.0 % Extraction speed 5.2 X Track quality 100.0 % Test CRC 638F1CAE Copy CRC 638F1CAE Track not present in AccurateRip database Copy OK

Track 17

Filename G:\My Storage\Music\New Lossless Rips\Various Artists\VA - Twin Peaks - Music from the Limited Event Series (2017) [FLAC]\17 - The Veils - Axolotl [Roadhouse Mix].wav

Peak level 98.8 % Extraction speed 5.1 X Track quality 100.0 % Test CRC E5144EDC Copy CRC E5144EDC Track not present in AccurateRip database Copy OK

Track 18

Filename G:\My Storage\Music\New Lossless Rips\Various Artists\VA - Twin Peaks - Music from the Limited Event Series (2017) [FLAC]\18 - Eddie Vedder - Out of Sand.wav

Peak level 98.8 % Extraction speed 5.3 X Track quality 100.0 % Test CRC 2BD60B3B Copy CRC 2BD60B3B Track not present in AccurateRip database Copy OK

Track 19

Filename G:\My Storage\Music\New Lossless Rips\Various Artists\VA - Twin Peaks - Music from the Limited Event Series (2017) [FLAC]\19 - Otis Redding - I've Been Loving You Too Long [Live from Monterey Pop].wav

Peak level 91.2 % Extraction speed 4.9 X Track quality 99.9 % Test CRC 4788BE0A Copy CRC 4788BE0A Track not present in AccurateRip database Copy OK

Track 20

Filename G:\My Storage\Music\New Lossless Rips\Various Artists\VA - Twin Peaks - Music from the Limited Event Series (2017) [FLAC]\20 - Julee Cruise - The World Spins.wav

Peak level 98.8 % Extraction speed 6.0 X Track quality 100.0 % Test CRC 69498EC3 Copy CRC 69498EC3 Track not present in AccurateRip database Copy OK

None of the tracks are present in the AccurateRip database

No errors occurred

End of status report

---- CUETools DB Plugin V2.1.6

[CTDB TOCID: lNS9azsmXG9.Upn4eKOnXbZTF6s-] foundSubmit result: lNS9azsmXG9.Upn4eKOnXbZTF6s- has been confirmedTrack | CTDB Status 1 | (10/10) Accurately ripped 2 | (10/10) Accurately ripped 3 | (10/10) Accurately ripped 4 | (10/10) Accurately ripped 5 | (10/10) Accurately ripped 6 | (10/10) Accurately ripped 7 | (10/10) Accurately ripped 8 | (10/10) Accurately ripped 9 | (10/10) Accurately ripped 10 | (10/10) Accurately ripped 11 | (10/10) Accurately ripped 12 | (10/10) Accurately ripped 13 | (10/10) Accurately ripped 14 | (10/10) Accurately ripped 15 | (10/10) Accurately ripped 16 | (10/10) Accurately ripped 17 | (10/10) Accurately ripped 18 | (10/10) Accurately ripped 19 | (10/10) Accurately ripped 20 | (10/10) Accurately ripped

==== Log checksum 635FBF0345707F8E0B9E381B7589C2D6C03A1280D2D14665F4C25186977DC4A1 ====
REM GENRE SoundtrackREM DATE 2017REM DISCID F9126314REM COMMENT "ExactAudioCopy v1.1"CATALOG 0081227933982PERFORMER "Various Artists"TITLE "Twin Peaks: Music From the Limited Event Series"FILE "01 Angelo Badalamenti - Twin Peaks Main Theme [Edit].flac" WAVE TRACK 01 AUDIO TITLE "Twin Peaks Main Theme [Edit]" PERFORMER "Angelo Badalamenti" ISRC USRH11701374 INDEX 01 00:00:00FILE "02 Chromatics - Shadow.flac" WAVE TRACK 02 AUDIO TITLE "Shadow" PERFORMER "Chromatics" ISRC QMMMF1500047 INDEX 01 00:00:00FILE "03 The Cactus Blossoms - Mississippi.flac" WAVE TRACK 03 AUDIO TITLE "Mississippi" PERFORMER "The Cactus Blossoms" ISRC USRHR1629305 INDEX 01 00:00:00FILE "04 Au Revoir Simone - Lark.flac" WAVE TRACK 04 AUDIO TITLE "Lark" PERFORMER "Au Revoir Simone" ISRC USA560621634 INDEX 01 00:00:00FILE "05 Blunted Beatz - I Am.flac" WAVE TRACK 05 AUDIO TITLE "I Am" PERFORMER "Blunted Beatz" ISRC USRH11701378 INDEX 01 00:00:00FILE "06 The Paris Sisters - I Love How You Love Me.flac" WAVE TRACK 06 AUDIO TITLE "I Love How You Love Me" PERFORMER "The Paris Sisters" ISRC USRH11701379 INDEX 01 00:00:00FILE "07 Trouble - Snake Eyes.flac" WAVE TRACK 07 AUDIO TITLE "Snake Eyes" PERFORMER "Trouble" ISRC US5NR1718601 INDEX 01 00:00:00FILE "08 Sharon Van Etten - Tarifa [Roadhouse Mix].flac" WAVE TRACK 08 AUDIO TITLE "Tarifa [Roadhouse Mix]" PERFORMER "Sharon Van Etten" ISRC US38Y1425530 INDEX 01 00:00:00FILE "09 Nine Inch Nails - She's Gone Away.flac" WAVE TRACK 09 AUDIO TITLE "She's Gone Away" PERFORMER "Nine Inch Nails" ISRC TCACU1695142 INDEX 01 00:00:00FILE "10 The Platters - My Prayers.flac" WAVE TRACK 10 AUDIO TITLE "My Prayers" PERFORMER "The Platters" ISRC USPR39982230 INDEX 01 00:00:00FILE "11 Rebekah Del Rio - No Stars.flac" WAVE TRACK 11 AUDIO TITLE "No Stars" PERFORMER "Rebekah Del Rio" ISRC USRH11701384 INDEX 01 00:00:00FILE "12 Shawn Colvin - Viva Las Vegas.flac" WAVE TRACK 12 AUDIO TITLE "Viva Las Vegas" PERFORMER "Shawn Colvin" ISRC USSM10603853 INDEX 01 00:00:00FILE "13 James Marshall - Just You.flac" WAVE TRACK 13 AUDIO TITLE "Just You" PERFORMER "James Marshall" ISRC USRH11701386 INDEX 01 00:00:00FILE "14 Booker T. & The M.G.'s - Green Onions.flac" WAVE TRACK 14 AUDIO TITLE "Green Onions" PERFORMER "Booker T. & The M.G.'s" ISRC USAT20000736 INDEX 01 00:00:00FILE "15 Lissie - Wild West [Roadhouse Mix].flac" WAVE TRACK 15 AUDIO TITLE "Wild West [Roadhouse Mix]" PERFORMER "Lissie" ISRC QM2HN1700002 INDEX 01 00:00:00FILE "16 ZZ Top - Sharp Dressed Man.flac" WAVE TRACK 16 AUDIO TITLE "Sharp Dressed Man" PERFORMER "ZZ Top" ISRC USWB10301937 INDEX 01 00:00:00FILE "17 The Veils - Axolotl [Roadhouse Mix].flac" WAVE TRACK 17 AUDIO TITLE "Axolotl [Roadhouse Mix]" PERFORMER "The Veils" ISRC CAN111700207 INDEX 01 00:00:00FILE "18 Eddie Vedder - Out of Sand.flac" WAVE TRACK 18 AUDIO TITLE "Out of Sand" PERFORMER "Eddie Vedder" ISRC USJYS1700100 INDEX 01 00:00:00FILE "19 Otis Redding - I've Been Loving You Too Long [Live From Monterey Pop].flac" WAVE TRACK 19 AUDIO TITLE "I've Been Loving You Too Long [Live From Monterey Pop]" PERFORMER "Otis Redding" ISRC USAT20104529 INDEX 01 00:00:00FILE "20 Julee Cruise - The World Spins.flac" WAVE TRACK 20 AUDIO TITLE "The World Spins" PERFORMER "Julee Cruise" ISRC USWB10101664 INDEX 01 00:00:00


Трекер:  [ 10-Сен-2017 11:36 ]

  

Скачать .torrent

Размер .torrent файла 37 KB


Размер: 452 MB
Хэш (hash) релиза: 71df08dc09fc255472dcdd654d73fc7636fe7e78

Торренты, похожие на Твин Пикс Twin Peaks скачать торрент

Форум Название Автор Размер S L Добавлен
Саундтреки к фильмам и мультфильмам (lossless) ·· (Score/TV) Твин Пикс / Twin Peaks (Limited Event Series Soundtrack) (Angelo Badalamenti) - 2017, FLAC (tracks+.cue), lossless Galfimbul 401523190383 MB 0 0 1505463714

11:21

15-Сен-17

Саундтреки к фильмам и мультфильмам (lossless) ·· (Soundtrack) Твин Пикс / Twin Peaks (Music from the Limited Event Series) (Angelo Badalamenti) - 2017, FLAC (tracks+.cue), lossless Galfimbul 474162486452 MB 0 0 1505132078

15:14

11-Сен-17

Саундтреки к фильмам и мультфильмам (mp3) ·· (Score) Твин Пикс / Twin Peaks (Limited Event Series Soundtrack) (by Angelo Badalamenti) - 2017, MP3, 320 kbps Galfimbul 188814345180 MB 0 0 1504878370

16:46

8-Сен-17

Саундтреки к фильмам и мультфильмам (mp3) ·· (Soundtrack) Твин Пикс / Twin Peaks (Music from the Limited Event Series) - 2017, MP3, 320 kbps Galfimbul 190053989181 MB 0 0 1504878361

16:46

8-Сен-17

Саундтреки к фильмам и мультфильмам (lossless) ·· (Score / Ambient, Psychedelic, Blues) [LP] [24/96] Твин Пикс / Twin Peaks (by Angelo Badalamenti) - 1990, FLAC (tracks), lossless Galfimbul 1016959853970 MB 0 0 1292268641

22:30

13-Дек-10

Саундтреки к фильмам и мультфильмам (mp3) ·· (Soundtrack/TV) A.Badalamenti & D.Lynch - Твин Пикс / Twin Peaks Season Two Music And More - 2007, MP3, 320 kbps Galfimbul 172285875164 MB 0 0 1292265236

21:33

13-Дек-10

Саундтреки к фильмам и мультфильмам (mp3) ·· (Score) Твин Пикс / Twin Peaks (Angelo Badalamenti) - 1990, MP3, 320 kbps Phoenix 121647002116 MB 0 0 1292265053

21:30

13-Дек-10

Саундтреки ·· (Score) Твин Пикс / The Twin Peaks (The Twin Peaks Archive) (by Angelo Badalamenti & David Lynch) {WEB} - 2011 (1990-1992), FLAC (tracks), lossless Galfimbul 26836641982.5 GB 0 0 1356622860

18:41

27-Дек-12

Саундтреки ·· (Score) Твин Пикс / The Twin Peaks (The Twin Peaks Archive) (by Angelo Badalamenti & David Lynch) - 2011, MP3, 320 kbps Galfimbul 14156227811.32 GB 0 0 1356814380

23:53

29-Дек-12

Саундтреки к фильмам и мультфильмам (mp3) ·· (Soundtrack) Твин Пикс (3 сезон) / Twin Peakc (3 season) (Twin Peaks OST season 3) - 2017, MP3, 320 kbps Galfimbul 117557858112 MB 0 0 1495709336

13:48

25-Май-17

Саундтреки к фильмам и мультфильмам (lossless) ·· (Dream-Pop, Trip-Hop) Julee Cruise (Джули Круз) - Falling (The Theme From Twin Peaks, Тема из сериала "Твин Пикс") (Single) - 1990, APE (image+.cue), lossless AqvaGen 7666884473 MB 0 0 1292268500

22:28

13-Дек-10

Саундтреки к фильмам и мультфильмам (mp3) ·· (Score) Твин Пикс: Сквозь огонь / Twin Peaks: Fire Walk With Me (Angelo Badalamenti) - 1992 [MP3 320 kbps] Mos 148740581142 MB 0 0 1291107472

11:57

30-Ноя-10

Еще никто не оставлял запись к записи скачать торрент Твин Пикс Twin Peaks . Будь первым!

!Обратная связь