[ATV3] : Pirates of the Caribbean: Dead Men Tell No Tales torrent

, , - AdBlock. #!


8.66 GB   |    :  3 2    |    .torrent :  73    |   
1  
   
...
 

Galfimbul

avatar Galfimbul


: / Pirates of the Caribbean: Dead Men Tell No Tales
-

6.643 / 10 7.00 / 10
: 2017
:
: , , ,
: 02:09:07

: ()
:
C: , ,
:
: , ,
: , . .,
:
:
: , ,
: ,
: , , , , , , , , ,

: $230 000 000
: $172 453 475
: + $621 255 576 = $793 709 051
: $39 035 481

: 11 2017
(): 25 2017, WDSSPR

DVD: 19 2017, û
Blu-Ray: 19 2017, û

: , , . , . , . : Blu-Ray (BlueBird)
: BDRip
: HD (1080p)
: M4V
: H.264, 1920x800, 2.40:1, 8 000 Kbps, 23.976 (24000/1001) fps

1: / (), AAC / 2.0 / 160 Kbps / 48.0 KHz
2: / , AAC / 2.0 / 160 Kbps / 48.0 KHz
3: / (), AC-3 / 5.1 / 640 Kbps / 48.0 KHz
4: / , AC-3 / 5.1 / 640 Kbps / 48.0 KHz

1:
2:
3:
Sort Name: Pirates of the Caribbean: Dead Men Tell No Tales
XID: Apple:vendor_id:2017-575180
contentID: 1237438304
Copyright: 2017 Walt Disney Pictures
Screenwriters: , ,
Producers: , . .,
Director: ,
Cast: , , , , , , , , ,
Studio: Walt Disney Pictures
Rating Annotation: Rated PG-13 for sequences of adventure violence, and some suggestive content.
Rating: 4
Long Description: , , . , . - , .
Description: , , . , ...
Release Date: 2017-05-11T08:00:00Z
Genre: Action & Adventure
Artist: Joachim Rønning & Espen Sandberg
Name: Pirates of the Caribbean: Dead Men Tell No Tales
General
Complete name : /Users/imac/HandBrake/Pirates of the Caribbean- Dead Men Tell No Tales (1080p HD).m4v
Format : MPEG-4
Codec ID : M4V (M4V /M4A /mp42/isom)
File size : 8.66 GiB
Duration : 2h 9mn
Overall bit rate mode : Variable
Overall bit rate : 9 607 Kbps
Movie name : Pirates of the Caribbean: Dead Men Tell No Tales
Performer : Joachim Rønning & Espen Sandberg
Director : /
Actor : / / / / / / / / /
Screenplay by : / /
Producer : / . . /
Production studio : Walt Disney Pictures
Genre : Action & Adventure
ContentType : Short Film
Description : , , . , ...
Recorded date : UTC 2017-05-11 08:00:00
Encoded date : UTC 2017-09-13 21:12:31
Tagged date : UTC 2017-09-13 21:17:53
Copyright : 2017 Walt Disney Pictures
Cover : Yes
Rating : None
Title/Sort : Pirates of the Caribbean: Dead Men Tell No Tales
LongDescription : , , . , . - , .
AppleStoreCatalogID : 1237438304
Vendor : Apple:vendor_id:2017-575180
ContentRating : mpaa|PG-13|300|Rated PG-13 for sequences of adventure violence, and some suggestive content.

Video #1
ID : 1
Format : AVC
Format/Info : Advanced Video Codec
Format profile : High@L4
Format settings, CABAC : Yes
Format settings, ReFrames : 4 frames
Codec ID : avc1
Codec ID/Info : Advanced Video Coding
Duration : 2h 9mn
Source duration : 2h 9mn
Bit rate : 8 000 Kbps
Width : 1 920 pixels
Height : 800 pixels
Display aspect ratio : 2.40:1
Frame rate mode : Variable
Frame rate : 23.976 (24000/1001) fps
Minimum frame rate : 23.974 fps
Maximum frame rate : 23.981 fps
Color space : YUV
Chroma subsampling : 4:2:0
Bit depth : 8 bits
Scan type : Progressive
Bits/(Pixel*Frame) : 0.217
Stream size : 7.22 GiB (83%)
Source stream size : 7.22 GiB (83%)
Title : Main Program
Writing library : x264 core 148 r2708 86b7198
Encoding settings : cabac=1 / ref=4 / deblock=1:-2:-2 / analyse=0x3:0x133 / me=umh / subme=10 / psy=1 / psy_rd=1.00:0.15 / mixed_ref=1 / me_range=32 / chroma_me=1 / trellis=2 / 8x8dct=1 / cqm=0 / deadzone=21,11 / fast_pskip=1 / chroma_qp_offset=-3 / threads=25 / lookahead_threads=6 / sliced_threads=0 / nr=0 / decimate=0 / interlaced=0 / bluray_compat=0 / constrained_intra=0 / bframes=16 / b_pyramid=2 / b_adapt=2 / b_bias=0 / direct=3 / weightb=1 / open_gop=0 / weightp=2 / keyint=240 / keyint_min=24 / scenecut=40 / intra_refresh=0 / rc_lookahead=40 / rc=2pass / mbtree=1 / bitrate=8000 / ratetol=1.0 / qcomp=0.70 / qpmin=0 / qpmax=69 / qpstep=4 / cplxblur=20.0 / qblur=0.5 / ip_ratio=1.40 / aq=1:1.00
Language : English
Encoded date : UTC 2017-09-13 21:12:31
Tagged date : UTC 2017-09-13 21:12:54
Color range : Limited
Color primaries : BT.709
Transfer characteristics : BT.709
Matrix coefficients : BT.709
Menus : 9,10

Video #2
ID : 10
Format : JPEG
Codec ID : jpeg
Duration : 2h 9mn
Bit rate mode : Variable
Bit rate : 1 299 bps
Width : 640 pixels
Height : 266 pixels
Display aspect ratio : 2.40:1
Frame rate mode : Variable
Frame rate : 0.004 fps
Minimum frame rate : 0.002 fps
Maximum frame rate : 4.808 fps
Color space : YUV
Chroma subsampling : 4:2:0
Bit depth : 8 bits
Compression mode : Lossy
Bits/(Pixel*Frame) : 1.908
Stream size : 1.12 MiB (0%)
Title : Chapter Images
Language : English
Default : No
Encoded date : UTC 2017-09-13 21:13:58
Tagged date : UTC 2017-09-13 21:13:59
Menu For : 1

Audio #1
ID : 2
Format : AAC
Format/Info : Advanced Audio Codec
Format profile : LC
Codec ID : 40
Duration : 2h 9mn
Bit rate mode : Variable
Bit rate : 158 Kbps
Maximum bit rate : 242 Kbps
Channel(s) : 2 channels
Channel positions : Front: L R
Sampling rate : 48.0 KHz
Frame rate : 46.875 fps (1024 SPF)
Compression mode : Lossy
Stream size : 146 MiB (2%)
Title : Russian Stereo
Language : Russian
Default : Yes
Alternate group : 1
Encoded date : UTC 2017-09-13 21:12:31
Tagged date : UTC 2017-09-13 21:13:43
Fallback From : 4
Subtitles : 6,7

Audio #2
ID : 3
Format : AAC
Format/Info : Advanced Audio Codec
Format profile : LC
Codec ID : 40
Duration : 2h 9mn
Bit rate mode : Variable
Bit rate : 158 Kbps
Maximum bit rate : 241 Kbps
Channel(s) : 2 channels
Channel positions : Front: L R
Sampling rate : 48.0 KHz
Frame rate : 46.875 fps (1024 SPF)
Compression mode : Lossy
Stream size : 146 MiB (2%)
Title : English Stereo
Language : English
Default : No
Alternate group : 1
Encoded date : UTC 2017-09-13 21:12:31
Tagged date : UTC 2017-09-13 21:13:43
Fallback From : 5

Audio #3
ID : 4
Format : AC-3
Format/Info : Audio Coding 3
Format settings, Endianness : Big
Codec ID : ac-3
Duration : 2h 9mn
Bit rate mode : Constant
Bit rate : 640 Kbps
Channel(s) : 6 channels
Channel positions : Front: L C R, Side: L R, LFE
Sampling rate : 48.0 KHz
Frame rate : 31.250 fps (1536 SPF)
Bit depth : 16 bits
Compression mode : Lossy
Stream size : 591 MiB (7%)
Title : Russian DD 5.1
Language : Russian
Service kind : Complete Main
Default : Inherited From: 2
Alternate group : 1
Encoded date : UTC 2017-09-13 21:12:31
Tagged date : UTC 2017-09-13 21:13:43
Fallback To : 2
Subtitles : 6,7

Audio #4
ID : 5
Format : AC-3
Format/Info : Audio Coding 3
Format settings, Endianness : Big
Codec ID : ac-3
Duration : 2h 9mn
Bit rate mode : Constant
Bit rate : 640 Kbps
Channel(s) : 6 channels
Channel positions : Front: L C R, Side: L R, LFE
Sampling rate : 48.0 KHz
Frame rate : 31.250 fps (1536 SPF)
Bit depth : 16 bits
Compression mode : Lossy
Stream size : 591 MiB (7%)
Title : English DD 5.1
Language : English
Service kind : Complete Main
Default : No
Alternate group : 1
Encoded date : UTC 2017-09-13 21:12:31
Tagged date : UTC 2017-09-13 21:13:43
Fallback To : 3

Text #1
ID : 6
Format : Timed Text
Muxing mode : sbtl
Codec ID : tx3g
Duration : 2h 0mn
Bit rate mode : Variable
Bit rate : 1 bps
Stream size : 734 Bytes (0%)
Title : Russian forced
Language : Russian
Default : Yes
Forced : Yes
Alternate group : 2
Encoded date : UTC 2017-09-13 21:12:31
Tagged date : UTC 2017-09-13 21:13:39
Subtitles For : 2,4
Full Alternative : 7

Text #2
ID : 7
Format : Timed Text
Muxing mode : sbtl
Codec ID : tx3g
Duration : 2h 0mn
Bit rate mode : Variable
Bit rate : 77 bps
Stream size : 67.5 KiB (0%)
Title : Russian full
Language : Russian
Default : No
Forced : No
Alternate group : 2
Encoded date : UTC 2017-09-13 21:12:31
Tagged date : UTC 2017-09-13 21:13:39
Subtitles For : 2,4
Forced Alternative : 6

Text #3
ID : 8
Format : Timed Text
Muxing mode : sbtl
Codec ID : tx3g
Duration : 1h 58mn
Bit rate mode : Variable
Bit rate : 51 bps
Stream size : 44.0 KiB (0%)
Title : English full
Language : English
Default : No
Forced : No
Alternate group : 2
Encoded date : UTC 2017-09-13 21:12:31
Tagged date : UTC 2017-09-13 21:13:39

Menu #1
00:00:00.000 : Chapter 01
00:05:49.515 : Chapter 02
00:08:34.222 : Chapter 03
00:13:40.820 : Chapter 04
00:16:29.154 : Chapter 05
00:22:33.852 : Chapter 06
00:25:19.267 : Chapter 07
00:28:06.101 : Chapter 08
00:31:41.774 : Chapter 09
00:33:44.814 : Chapter 10
00:37:02.053 : Chapter 11
00:42:27.711 : Chapter 12
00:49:09.071 : Chapter 13
00:54:00.278 : Chapter 14
00:57:19.394 : Chapter 15
01:00:38.718 : Chapter 16
01:08:29.939 : Chapter 17
01:11:57.021 : Chapter 18
01:16:50.939 : Chapter 19
01:19:27.471 : Chapter 20
01:25:04.808 : Chapter 21
01:27:42.172 : Chapter 22
01:31:43.789 : Chapter 23
01:38:22.813 : Chapter 24
01:42:36.775 : Chapter 25
01:47:23.562 : Chapter 26
01:52:58.688 : Chapter 27
01:59:09.934 : Chapter 28
02:09:06.989 : Chapter 29

Menu #2
ID : 9
Codec ID : text
Duration : 2h 9mn
Language : English
Encoded date : UTC 2017-09-13 21:13:43
Tagged date : UTC 2017-09-13 21:13:43
Bit rate mode : CBR
Menu For : 1
00:00:00.000 : Chapter 01
00:05:49.515 : Chapter 02
00:08:34.222 : Chapter 03
00:13:40.820 : Chapter 04
00:16:29.154 : Chapter 05
00:22:33.852 : Chapter 06
00:25:19.267 : Chapter 07
00:28:06.101 : Chapter 08
00:31:41.774 : Chapter 09
00:33:44.814 : Chapter 10
00:37:02.053 : Chapter 11
00:42:27.711 : Chapter 12
00:49:09.071 : Chapter 13
00:54:00.278 : Chapter 14
00:57:19.394 : Chapter 15
01:00:38.718 : Chapter 16
01:08:29.939 : Chapter 17
01:11:57.021 : Chapter 18
01:16:50.939 : Chapter 19
01:19:27.471 : Chapter 20
01:25:04.808 : Chapter 21
01:27:42.172 : Chapter 22
01:31:43.789 : Chapter 23
01:38:22.813 : Chapter 24
01:42:36.775 : Chapter 25
01:47:23.562 : Chapter 26
01:52:58.688 : Chapter 27
01:59:09.934 : Chapter 28
02:09:06.989 : Chapter 29
x264 [info]: frame I:1157 Avg QP:18.55 size:211050
x264 [info]: frame P:49442 Avg QP:21.58 size: 67473
x264 [info]: frame B:135149 Avg QP:22.58 size: 30833
x264 [info]: consecutive B-frames: 4.0% 7.5% 14.1% 23.6% 15.4% 32.9% 1.8% 0.3% 0.2% 0.1% 0.1% 0.0% 0.0% 0.0% 0.0% 0.0% 0.0%
x264 [info]: mb I I16..4: 27.8% 50.9% 21.3%
x264 [info]: mb P I16..4: 6.5% 15.1% 2.2% P16..4: 44.6% 15.7% 10.1% 0.4% 0.1% skip: 5.4%
x264 [info]: mb B I16..4: 2.0% 1.8% 0.4% B16..8: 44.6% 9.4% 2.2% direct: 8.4% skip:31.2% L0:44.9% L1:43.4% BI:11.7%
x264 [info]: 8x8 transform intra:56.3% inter:62.0%
x264 [info]: direct mvs spatial:97.4% temporal:2.6%
x264 [info]: coded y,uvDC,uvAC intra: 91.2% 78.6% 49.0% inter: 32.4% 28.9% 8.5%
x264 [info]: i16 v,h,dc,p: 8% 8% 55% 29%
x264 [info]: i8 v,h,dc,ddl,ddr,vr,hd,vl,hu: 8% 9% 6% 10% 14% 13% 14% 12% 13%
x264 [info]: i4 v,h,dc,ddl,ddr,vr,hd,vl,hu: 9% 8% 9% 9% 14% 13% 14% 11% 14%
x264 [info]: i8c dc,h,v,p: 46% 23% 17% 14%
x264 [info]: Weighted P-Frames: Y:4.0% UV:2.4%
x264 [info]: ref P L0: 52.0% 12.6% 22.7% 11.7% 1.0% 0.0%
x264 [info]: ref B L0: 85.9% 11.6% 2.5%
x264 [info]: ref B L1: 95.4% 4.6%
x264 [info]: kb/s:7999.96
Apple TV, iPad, iPhone, iPod Touch.
Windows VLC media player

 ·  , , FAQ-
:  [ 14--2017 01:12 ]

  

.torrent

.torrent 87 KB


: 8.66 GB
(hash) : dd34ef9ed8fc3e0d7af35d547479b9c49b739a47
··
...

[ATV3] : Pirates of the Caribbean: Dead Men Tell No Tales . !

!