Скачать через торрент Пираты Карибского моря: Мертвецы не рассказывают сказки Pirates of the Caribbean: Dead Men Tell No Tales Фильм бесплатно в хорошем качестве torrent

Скачивайте на UnionPeer.org фильмы через торрент без регистрации. Новинки кино в хорошем качестве через торрент. На UnionPeer.org можно скачать через торрент фильмы 2014 и 2015 годов. Самые новые фильмы.

Скачать торрент Пираты Карибского моря: Мертвецы не рассказывают сказки Pirates of the Caribbean: Dead Men Tell No Tales бесплатно через .torrent фильм мультфильм сериал

Если у вас наблюдаются проблемы со скриншотами, переходом по ссылками, скачиванием торрентов - проблемы в блокировщике рекламы AdBlock. #хорошегоДня!


Статистика раздачи
Размер:  7.81 GB   |    Зарегистрирован:  3 месяца   |    .torrent скачан:  487 раз   |   
Раздают:  6  
   
Загрузка...
 
Автор Сообщение

Galfimbul

avatar Galfimbul


Пираты Карибского моря: Мертвецы не рассказывают сказки /Pirates of the Caribbean: Dead Men Tell No Tales

Год выхода: 2017
Жанр: Фэнтези, боевик, комедия, приключения
Режиссер: Хоаким Роннинг, Эспен Сандберг
В ролях: Джонни Депп, Кира Найтли, Кая Скоделарио, Дэвид Уэнэм, Орландо Блум, Джеффри Раш, Брентон Туэйтс, Хавьер Бардем, Голшифте Фарахани, Стивен Грэм

О фильме:
Исчерпавший свою удачу капитан Джек Воробей обнаруживает, что за ним охотится его старый неприятель, ужасный капитан Салазар и его призрачные пираты. Они только что сбежали из Дьявольского треугольника и намерены уничтожить всех пиратов, включая Джека. Поможет спастись лишь могущественный артефакт — трезубец Посейдона, который дарует своему обладателю полный контроль над морями.
</a>

Страна: США
Продолжительность: 02:09:07
Перевод: Дублированный (Лицензия)

Файл
Кодек: HEVC x265 10 bit
Качество: BDRip-HEVC 1080p
Видео: 1920x800 (2.40:1), 7374 Кбит/сек, 0.200 бит/(Пиксели*Кадры), 23,976 кадр/сек (24000/1001), HEVC (Main10@L.5.1@High) 10 бит
Звук:
Русский, AC3, 640 Кбит/сек,Front: L C R, Side: L R, LFE, 48,0 КГц
Аеглийская, AC3, 640 Кбит/сек, Front: L C R, Side: L R, LFE, 48,0 КГц
Субтитры: Русские (форсированные, полные), Английские (полные)

Семпл
Общее
Уникальный идентификатор : 229674166050619228218767308340859133868 (0xACC9A2A895CD0196B6EC2E18CEC25FAC)
Полное имя : I:HEVC 210 BITPirates of the Caribbean_Dead Men Tell No Tales_2017_BDRip_1080p_[HEVC]_10bit.mkv
Формат : Matroska
Версия формата : Version 4 / Version 2
Размер файла : 7,81 Гбайт
Продолжительность : 2 ч. 9 м.
Общий поток : 8657 Кбит/сек
Дата кодирования : UTC 2017-09-14 16:29:54
Программа кодирования : mkvmerge v9.9.0 ('Pick Up') 64bit
Библиотека кодирования : libebml v1.3.4 + libmatroska v1.4.5
Обложка : Yes
Attachments : cover.png

Видео
Идентификатор : 1
Формат : HEVC
Формат/Информация : High Efficiency Video Coding
Профиль формата : Main 10@L5.1@High
Идентификатор кодека : V_MPEGH/ISO/HEVC
Продолжительность : 2 ч. 9 м.
Битрейт : 7374 Кбит/сек
Ширина : 1920 пикселей
Высота : 800 пикселей
Соотношение сторон : 2,40:1
Режим частоты кадров : Постоянный
Частота кадров : 23,976 (24000/1001) кадра/сек
Цветовое пространство : YUV
Субдискретизация насыщенности : 4:2:0
Битовая глубина : 10 бит
Бит/(Пиксели*Кадры) : 0.200
Размер потока : 6,65 Гбайт (85%)
Библиотека кодирования : x265 2.5+6-d11482e5fedb:[Windows][GCC 7.1.0][64 bit] 10bit
Настройки программы : cpuid=1173503 / frame-threads=4 / numa-pools=16 / wpp / no-pmode / no-pme / no-psnr / no-ssim / log-level=2 / input-csp=1 / input-res=1920x800 / interlace=0 / total-frames=0 / level-idc=51 / high-tier=1 / uhd-bd=0 / ref=5 / no-allow-non-conformance / no-repeat-headers / annexb / no-aud / no-hrd / info / hash=0 / no-temporal-layers / open-gop / min-keyint=23 / keyint=240 / bframes=8 / b-adapt=2 / b-pyramid / bframe-bias=0 / rc-lookahead=40 / lookahead-slices=4 / scenecut=40 / no-intra-refresh / ctu=32 / min-cu-size=8 / rect / no-amp / max-tu-size=32 / tu-inter-depth=2 / tu-intra-depth=2 / limit-tu=4 / rdoq-level=1 / dynamic-rd=0.00 / no-ssim-rd / signhide / no-tskip / nr-intra=0 / nr-inter=0 / no-constrained-intra / strong-intra-smoothing / max-merge=3 / limit-refs=3 / limit-modes / me=2 / subme=6 / merange=32 / temporal-mvp / weightp / weightb / no-analyze-src-pics / deblock=-3:-3 / no-sao / no-sao-non-deblock / rd=5 / no-early-skip / rskip / no-fast-intra / no-tskip-fast / no-cu-lossless / no-b-intra / rdpenalty=0 / psy-rd=2.00 / psy-rdoq=5.00 / no-rd-refine / analysis-reuse-mode=0 / no-lossless / cbqpoffs=0 / crqpoffs=0 / rc=crf / crf=19.0 / qcomp=0.60 / qpstep=4 / stats-write=0 / stats-read=0 / vbv-maxrate=160000 / vbv-bufsize=160000 / vbv-init=0.9 / crf-max=0.0 / crf-min=0.0 / ipratio=1.40 / pbratio=1.30 / aq-mode=1 / aq-strength=0.80 / cutree / zone-count=1 / zones: / start-frame=173913 / end-frame=185748 / qp=35 / no-strict-cbr / qg-size=32 / no-rc-grain / qpmax=69 / qpmin=0 / no-const-vbv / sar=0 / overscan=0 / videoformat=5 / range=0 / colorprim=2 / transfer=2 / colormatrix=1 / chromaloc=0 / display-window=0 / max-cll=0,0 / min-luma=0 / max-luma=1023 / log2-max-poc-lsb=8 / vui-timing-info / vui-hrd-info / slices=1 / opt-qp-pps / opt-ref-list-length-pps / no-multi-pass-opt-rps / scenecut-bias=0.05 / no-opt-cu-delta-qp / aq-motion / no-hdr / no-hdr-opt / no-dhdr10-opt / analysis-reuse-level=5 / scale-factor=0 / refine-intra=0 / refine-inter=0 / refine-mv=0 / no-limit-sao / ctu-info=0
Default : Да
Forced : Да
Цветовой диапазон : Limited
Коэффициенты матрицы : BT.709

Аудио #1
Идентификатор : 2
Формат : AC-3
Формат/Информация : Audio Coding 3
Параметр Endianness формата : Big
Идентификатор кодека : A_AC3
Продолжительность : 2 ч. 9 м.
Вид битрейта : Постоянный
Битрейт : 640 Кбит/сек
Каналы : 6 каналов
Расположение каналов : Front: L C R, Side: L R, LFE
Частота : 48,0 КГц
Частота кадров : 31,250 кадров/сек (1536 SPF)
Битовая глубина : 16 бит
Метод сжатия : С потерями
Размер потока : 591 Мбайт (7%)
Заголовок : Дубляж
Язык : Russian
ServiceKind : Complete Main
Default : Да
Forced : Нет

Аудио #2
Идентификатор : 3
Формат : AC-3
Формат/Информация : Audio Coding 3
Параметр Endianness формата : Big
Идентификатор кодека : A_AC3
Продолжительность : 2 ч. 9 м.
Вид битрейта : Постоянный
Битрейт : 640 Кбит/сек
Каналы : 6 каналов
Расположение каналов : Front: L C R, Side: L R, LFE
Частота : 48,0 КГц
Частота кадров : 31,250 кадров/сек (1536 SPF)
Битовая глубина : 16 бит
Метод сжатия : С потерями
Размер потока : 591 Мбайт (7%)
Заголовок : оригинал
Язык : English
ServiceKind : Complete Main
Default : Нет
Forced : Нет

Текст #1
Идентификатор : 4
Формат : UTF-8
Идентификатор кодека : S_TEXT/UTF8
Идентификатор кодека/Информация : UTF-8 Plain Text
Продолжительность : 1 ч. 17 м.
Битрейт : 0 бит/сек
ElementCount : 11
Размер потока : 540 байт (0%)
Заголовок : русские forced
Язык : Russian
Default : Да
Forced : Нет

Текст #2
Идентификатор : 5
Формат : UTF-8
Идентификатор кодека : S_TEXT/UTF8
Идентификатор кодека/Информация : UTF-8 Plain Text
Продолжительность : 1 ч. 59 м.
Битрейт : 72 бит/сек
ElementCount : 1319
Размер потока : 62,9 Кбайт (0%)
Заголовок : русские full
Язык : Russian
Default : Нет
Forced : Нет

Текст #3
Идентификатор : 6
Формат : UTF-8
Идентификатор кодека : S_TEXT/UTF8
Идентификатор кодека/Информация : UTF-8 Plain Text
Продолжительность : 2 ч. 7 м.
Битрейт : 48 бит/сек
ElementCount : 1772
Размер потока : 45,7 Кбайт (0%)
Язык : English
Default : Нет
Forced : Нет
Релиз от: от XuMuK
Источник http://arutor.org

Трекер:  [ 14-Сен-2017 20:30 ]

  

Скачать .torrent

Размер .torrent файла 20 KB


Размер: 7.81 GB
Хэш (hash) релиза: 403d7adf73d1e4b77481759a1e557f1070a91f2e
Подписка на обновления:

Торренты, похожие на Пираты Карибского моря: Мертвецы не рассказывают сказки Pirates of the Caribbean: Dead Men Tell No Tales скачать торрент

Форум Название Автор Размер S L Добавлен
Зарубежные фильмы до 2016 ·· Пираты Карибского моря: Мертвецы не рассказывают сказки / Pirates of the Caribbean: Dead Men Tell No Tales (Хоаким Роннинг, Эспен Сандберг / Joachim Rønning, Espen Sandberg)[2017, США, приключения, BD>DVD9 (Custom)] DUB + Sub Rus / Eng + Orig Galfimbul 84168253447.84 GB 0 0 1511865371

13:36

28-Ноя-17

Зарубежные фильмы 2016-2017 (Новинки зарубежного кино) ·· Пираты Карибского моря: Мертвецы не рассказывают сказки / Pirates of the Caribbean: Dead Men Tell No Tales (Хоаким Роннинг / Joachim Roenning, Эспен Сандберг / Espen Sandberg) [2017, США, фэнтези, комедия, приключения WEB-DLRip] [Open Matte] Dub Galfimbul 23423918082.18 GB 0 0 1511065849

07:30

19-Ноя-17

Зарубежные фильмы 2016-2017 (Новинки зарубежного кино) ·· Пираты Карибского моря: Мертвецы не рассказывают сказки / Pirates of the Caribbean: Dead Men Tell No Tales (2017) HDRip от Scarabey | Лицензия | Open Matte Galfimbul 15527301121.45 GB 3 0 1510079468

21:31

7-Ноя-17

Зарубежные фильмы 2016-2017 (Новинки зарубежного кино) ·· Пираты Карибского моря: Мертвецы не рассказывают сказки / Pirates of the Caribbean: Dead Men Tell No Tales (2017) HDRip от Kaztorrents | КПК | Лицензия Galfimbul 514829723491 MB 0 0 1508836816

12:20

24-Окт-17

Трейлеры и дополнительные материалы ·· Пираты Карибского моря: Мертвецы не Рассказывают Сказки / Pirates of the Caribbean: Dead Men Tell No Tales (Хоаким Роннинг, Эспен Сандберг) [2017, Фэнтези | Боевик | Комедия | Приключения, BDRip 720p] дополнительные материалы Galfimbul 17996299801.68 GB 0 0 1506163683

13:48

23-Сен-17

Зарубежные фильмы 2016-2017 (Новинки зарубежного кино) ·· Пираты Карибского моря: Мертвецы не рассказывают сказки / Pirates of the Caribbean: Dead Men Tell No Tales (2017) BDRip 1080p от Ash61| 3D-Video | halfOU Galfimbul 1541897560214.36 GB 3 0 1506093634

18:20

22-Сен-17

Зарубежные фильмы 2016-2017 (Новинки зарубежного кино) ·· Пираты Карибского моря: Мертвецы не рассказывают сказки / Pirates of the Caribbean: Dead Men Tell No Tales (2017) BDRip 720p от ExKinoRay | Лицензия Galfimbul 60840105875.67 GB 3 0 1505340015

01:00

14-Сен-17

Зарубежные фильмы 2016-2017 (Новинки зарубежного кино) ·· Пираты Карибского моря: Мертвецы не рассказывают сказки / Pirates of the Caribbean: Dead Men Tell No Tales (Хоаким Роннинг / Joachim Rønning, Эспен Сандберг / Espen Sandberg) [2017, США, приключения, BDRip] Dub + Sub Rus, Eng + Original Eng Galfimbul 23428481722.18 GB 0 0 1505325676

21:01

13-Сен-17

Зарубежные фильмы до 2016 ·· Пираты Карибского моря: Мертвецы не рассказывают сказки / Pirates of the Caribbean: Dead Men Tell No Tales (Хоаким Роннинг, Эспен Сандберг / Joachim Rønning, Espen Sandberg) [2017, США, приключения, Blu-ray disc 1080p] [EUR] Dub + Sub Rus, Eng Galfimbul 4535936274842.24 GB 0 0 1505306318

15:38

13-Сен-17

Зарубежные фильмы 2016-2017 (Новинки зарубежного кино) ·· Пираты Карибского моря: Мертвецы не рассказывают сказки / Pirates of the Caribbean: Dead Men Tell No Tales (Хоаким Роннинг / Joachim Roenning, Эспен Сандберг / Espen Sandberg) [2017, США, фэнтези, боевик, приключения, BDRip-AVC] Dub +Sub (rus) Galfimbul 23251947462.17 GB 2 0 1505305825

15:30

13-Сен-17

Зарубежные фильмы 2016-2017 (Новинки зарубежного кино) ·· Пираты Карибского моря: Мертвецы не рассказывают сказки / Pirates of the Caribbean: Dead Men Tell No Tales (Хоаким Роннинг / Joachim Roenning, Эспен Сандберг / Espen Sandberg) [2017, США, Фэнтези, боевик, комедия, приключения, HDRip] Dub Galfimbul 15634452481.46 GB 0 0 1505304096

15:01

13-Сен-17

Зарубежные фильмы 2016-2017 (Новинки зарубежного кино) ·· Пираты Карибского моря: Мертвецы не рассказывают сказки / Pirates of the Caribbean: Dead Men Tell No Tales (Хоаким Роннинг / Joachim Ronning, Эспен Сандберг / Espen Sandberg) [2017, США, фэнтези, приключения, BDRip] Dub + Original Eng + Sub Rus, Eng Galfimbul 31304805102.92 GB 0 0 1505304086

15:01

13-Сен-17

Зарубежные фильмы 2016-2017 (Новинки зарубежного кино) ·· Пираты Карибского моря: Мертвецы не рассказывают сказки / Pirates of the Caribbean: Dead Men Tell No Tales (Хоаким Роннинг / Joachim Roenning, Эспен Сандберг / Espen Sandberg) [2017, США, фэнтези, боевик, BDRip-AVC] Dub + Original +Sub (rus, eng) Galfimbul 46391916834.32 GB 0 0 1505304073

15:01

13-Сен-17

Зарубежные фильмы 2016-2017 (Новинки зарубежного кино) ·· Пираты Карибского моря: Мертвецы не рассказывают сказки / Pirates of the Caribbean: Dead Men Tell No Tales (Хоаким Роннинг, Эспен Сандберг) [2017, фэнтези, боевик, комедия, приключения, Blu-Ray Remux 1080p] [Лицензия] Galfimbul 3492488316832.53 GB 0 0 1505292398

11:46

13-Сен-17

Зарубежные фильмы 2016-2017 (Новинки зарубежного кино) ·· Пираты Карибского моря: Мертвецы не рассказывают сказки / Pirates of the Caribbean: Dead Men Tell No Tales (Хоаким Роннинг, Эспен Сандберг) [2017 г., Фэнтези, боевик, комедия, приключения, HDRip] DUB | Лицензия Galfimbul 22040842242.05 GB 0 0 1505292255

11:44

13-Сен-17

Зарубежные фильмы 2016-2017 (Новинки зарубежного кино) ·· Пираты Карибского моря: Мертвецы не рассказывают сказки / Pirates of the Caribbean: Dead Men Tell No Tales (Хоаким Роннинг, Эспен Сандберг) [2017, фэнтези, боевик, комедия, приключения, BDRip 1080p] [Лицензия] Galfimbul 1235868439411.51 GB 9 1 1505249147

23:45

12-Сен-17

Зарубежные фильмы 2016-2017 (Новинки зарубежного кино) ·· Пираты Карибского моря: Мертвецы не рассказывают сказки / Pirates of the Caribbean: Dead Men Tell No Tales (Хоаким Роннинг, Эспен Сандберг) [2017 г., Фэнтези, боевик, комедия, приключения, HDRip] DUB | Лицензия Galfimbul 14668390401.37 GB 0 0 1505249085

23:44

12-Сен-17

Зарубежные фильмы 2016-2017 (Новинки зарубежного кино) ·· Пираты Карибского моря: Мертвецы не рассказывают сказки / Pirates of the Caribbean: Dead Men Tell No Tales (Хоаким Роннинг, Эспен Сандберг) [2017 г., Фэнтези, боевик, комедия, приключения, BDRip 720p] DUB | Лицензия Galfimbul 76618251117.14 GB 0 0 1505249078

23:44

12-Сен-17

Зарубежные фильмы 2016-2017 (Новинки зарубежного кино) ·· Пираты Карибского моря: Мертвецы не рассказывают сказки / Pirates of the Caribbean: Dead Men Tell No Tales (Хоаким Роннинг, Эспен Сандберг) [2017 г., фэнтези, боевик, комедия, приключения, BDRip 1080p ] DUB [Чистый звук] Galfimbul 1131271166010.54 GB 0 0 1505249067

23:44

12-Сен-17

Еще никто не оставлял запись к записи скачать торрент Пираты Карибского моря: Мертвецы не рассказывают сказки Pirates of the Caribbean: Dead Men Tell No Tales . Будь первым!

!Обратная связь