Скачать через торрент Колхоз Интертейнмент Фильм бесплатно в хорошем качестве torrent

Скачивайте на UnionPeer.org фильмы через торрент без регистрации. Новинки кино в хорошем качестве через торрент. На UnionPeer.org можно скачать через торрент фильмы 2014 и 2015 годов. Самые новые фильмы.

Скачать торрент Колхоз Интертейнмент бесплатно через .torrent фильм мультфильм сериал

Если у вас наблюдаются проблемы со скриншотами, переходом по ссылками, скачиванием торрентов - проблемы в блокировщике рекламы AdBlock. #хорошегоДня!


Статистика раздачи
Размер:  4.2 GB   |    Зарегистрирован:  2 месяца 16 дней   |    .torrent скачан:  25 раз   |   
Раздают:  1  
   
Загрузка...
 
Автор Сообщение

Galfimbul

avatar Galfimbul


Колхоз Интертейнмент

Страна: Россия
Жанр: комедия
Год выпуска: 2003
Продолжительность: 01:43:33

Перевод: Не требуется
Субтитры: нет
Оригинальная аудиодорожка: русская

Режиссер: Максим Воронков

В ролях: Николай Караченцов, Илья Олейников, Андрей Федорцов, Станислав Садальский, Александр Семчев, Александр Пятков, Марина Ширшикова, Виталий Альшанский, Галина Стаханова, Сергей Бадичкин

Описание: 1989 год, разгар перестройки. Колхоз «Красный бунтарь», из года в год перевыполняющий планы по надоям и зерну, наотрез отказывается тратить деньги на культурные мероприятия. Из-за этого руководство района собирается лишить колхозников их законной премии, но дает селянам последний шанс — в течение месяца либо драмкружок организовать, либо кино снять, да такое, чтобы утереть нос всяким-разным Голливудам. И началось!..

Меню: есть, статичное, озвученное

Тип релиза: DVD5
Контейнер: DVD-Video

Видео: PAL 4:3 (720x576(0.484)) MPEG Video, 25,000 кадр/сек, 5018 Кбит/сек
Аудио: Russian (Dolby AC-3, 2 ch) 256 Кбит/сек, 48.0 КГц
Общее
Полное имя : KOLCHOZ[torrents.ru]\VIDEO_TS\VTS_03_1.VOB
Формат : MPEG-PS
Размер файла : 1024 Мбайт
Продолжительность : 26 м. 36 с.
Режим общего битрейта : Переменный
Общий поток : 5381 Кбит/сек

Видео
Идентификатор : 224 (0xE0)
Формат : MPEG Video
Версия формата : Version 2
Профиль формата : Main@Main
Параметр BVOP формата : Да
Параметр матрицы формата : Выборочная
Параметр GOP формата : M=3, N=12
Структура изображения : Frame
Продолжительность : 26 м. 36 с.
Вид битрейта : Переменный
Битрейт : 5018 Кбит/сек
Максимальный битрейт : 8000 Кбит/сек
Ширина : 720 пикселей
Высота : 576 пикселей
Соотношение сторон : 4:3
Частота кадров : 25,000 кадров/сек
Стандарт вещания : PAL
Цветовое пространство : YUV
Субдискретизация насыщенности : 4:2:0
Битовая глубина : 8 бит
Тип развёртки : Чересстрочная
Порядок развёртки : Верхнее поле первое
Метод сжатия : С потерями
Бит/(Пиксели*Кадры) : 0.484
Временной код первого кадра : 00:00:00:00
Оригинал временного кода : Group of pictures header
GOP, открыто/закрыто : Открыто
GOP, открыто/закрыто на первом кадре : Закрыто
Размер потока : 955 Мбайт (93%)

Аудио
Идентификатор : 189 (0xBD)-128 (0x80)
Формат : AC-3
Формат/Информация : Audio Coding 3
Параметр Endianness формата : Big
Режим смешивания : DVD-Video
Продолжительность : 26 м. 35 с.
Вид битрейта : Постоянный
Битрейт : 256 Кбит/сек
Каналы : 2 канала
Расположение каналов : Front: L R
Частота : 48,0 КГц
Частота кадров : 31,250 кадров/сек (1536 spf)
Битовая глубина : 16 бит
Метод сжатия : С потерями
Размер потока : 48,7 Мбайт (5%)
ServiceKind/String : Complete Main


Трекер:  [ 27-Сен-2017 21:36 ]

  

Скачать .torrent

Размер .torrent файла 12 KB


Размер: 4.2 GB
Хэш (hash) релиза: aa7d757ff740a601219ec9d6979783b60d229f62
Подписка на обновления:

Еще никто не оставлял запись к записи скачать торрент Колхоз Интертейнмент . Будь первым!

!Обратная связь