Скачать через торрент Маленькая принцесса Фильм бесплатно в хорошем качестве torrent

Скачивайте на UnionPeer.org фильмы через торрент без регистрации. Новинки кино в хорошем качестве через торрент. На UnionPeer.org можно скачать через торрент фильмы 2014 и 2015 годов. Самые новые фильмы.

Скачать торрент Маленькая принцесса бесплатно через .torrent фильм мультфильм сериал

Если у вас наблюдаются проблемы со скриншотами, переходом по ссылками, скачиванием торрентов - проблемы в блокировщике рекламы AdBlock. #хорошегоДня!


Статистика раздачи
Размер:  4.11 GB   |    Зарегистрирован:  2 месяца 15 дней   |    .torrent скачан:  13 раз   |   
Раздают:  1  
   
Загрузка...
 
Автор Сообщение

Galfimbul

avatar Galfimbul


Маленькая принцесса

Страна: Россия
Жанр: семейный
Год выпуска: 1997
Продолжительность: 01:27:23

Перевод: Не требуется
Субтитры: нет
Оригинальная аудиодорожка: русская

Режиссер: Владимир Грамматиков

В ролях: Анастасия Меськова, Лянка Грыу, Игорь Ясулович, Алла Демидова, Анна Терехова, Егор Грамматиков, Степан Деметр, Екатерина Михайловская, Мария Машкова, Анна Дякина

Описание: Капитан Кру привозит свою любимую дочь Сару, которую он называет «маленькой принцессой», в один из лучших и самых дорогих пансионов, чтобы она получила хорошее образование. Сам он вынужден на время уехать. Добрая девочка сразу нашла в пансионе хороших подруг.
Ее полюбили все преподаватели, за исключением директрисы заведения мисс Минчин. Неожиданно в день своего рождения Сара узнает, что ее отец погиб, она осталась сиротой и на радость зловредной мисс Минчин абсолютно нищей.

Меню: есть, анимированное

Тип релиза: DVD5
Контейнер: DVD-Video

Видео: PAL 4:3 (720x576(0.654)) MPEG Video, 25,000 кадр/сек, 6786 Кбит/сек
Аудио: Russian (Dolby AC-3, 2 ch) 192 Кбит/сек, 48.0 КГц
Меню запускается только принудительно!
Общее
Полное имя : Malenkaiya princesa\VIDEO_TS\VTS_01_1.VOB
Формат : MPEG-PS
Размер файла : 1024 Мбайт
Продолжительность : 20 м. 6 с.
Режим общего битрейта : Переменный
Общий поток : 7119 Кбит/сек

Видео
Идентификатор : 224 (0xE0)
Формат : MPEG Video
Версия формата : Version 2
Профиль формата : Main@Main
Параметр BVOP формата : Да
Параметр матрицы формата : Выборочная
Параметр GOP формата : M=3, N=15
Продолжительность : 20 м. 6 с.
Вид битрейта : Переменный
Битрейт : 6786 Кбит/сек
Ширина : 720 пикселей
Высота : 576 пикселей
Соотношение сторон : 4:3
Частота кадров : 25,000 кадров/сек
Стандарт вещания : PAL
Цветовое пространство : YUV
Субдискретизация насыщенности : 4:2:0
Битовая глубина : 8 бит
Метод сжатия : С потерями
Бит/(Пиксели*Кадры) : 0.654
Размер потока : 976 Мбайт (95%)

Аудио
Идентификатор : 189 (0xBD)-128 (0x80)
Формат : AC-3
Формат/Информация : Audio Coding 3
Параметр Endianness формата : Big
Режим смешивания : DVD-Video
Продолжительность : 20 м. 6 с.
Вид битрейта : Постоянный
Битрейт : 192 Кбит/сек
Каналы : 2 канала
Расположение каналов : Front: L R
Частота : 48,0 КГц
Частота кадров : 31,250 кадров/сек (1536 spf)
Битовая глубина : 16 бит
Метод сжатия : С потерями
Задержка видео : -50 мс.
Размер потока : 27,6 Мбайт (3%)
ServiceKind/String : Complete Main


Трекер:  [ 28-Сен-2017 23:36 ]

  

Скачать .torrent

Размер .torrent файла 11 KB


Размер: 4.11 GB
Хэш (hash) релиза: a55ada0f79326f8c8e706347410a79e89bfe6da9
Подписка на обновления:

Торренты, похожие на Маленькая принцесса скачать торрент

Форум Название Автор Размер S L Добавлен
Зарубежные сериалы ·· Моя маленькая принцесса / My Little Princess / Qin Ai De Gong Zhu Bing [15/16] [Китай, 2016, романтика, комедия, HDTVRip] [720p] DVO (XDUB DORAMA) Galfimbul 105830732469.86 GB 0 0 1491331188

21:39

4-Апр-17

Мультфильмы до 2016 ·· Школа маленьких принцесс / Little Princess School (Эль McHaddo / Ale McHaddo) [2007, мультфильм, детский, DVD5] Galfimbul 22536273922.1 GB 0 0 1489006604

23:56

8-Мар-17

Мультфильмы до 2016 ·· Маленькая принцесса / A Little Princess (Лора Шеферд / Laura Shepherd) [1996, Канада, Мультфильм, семейный, приключения, DVD5] MVO + Original Eng Galfimbul 31043952642.89 GB 0 0 1453569204

20:13

23-Янв-16

Мультсериалы ·· Маленькая принцесса / Petite Princesse / Сезон: 1-3 / Серии: 57 из 100 + 2 специальных выпуска (Эдвард Фостер / Edward Foster) [2006-2010, Мультсериал, детский, семейный, приключения, SATRip] Dub Galfimbul 87029166088.11 GB 0 0 1443564337

01:05

30-Сен-15

Зарубежные фильмы до 2016 ·· Маленькая принцесса / Little Princess / Полли Тикс в Вашингтоне / Polly Tix in Washington / Что делать / What's to Do / Как раздобыть денег / Managed Money (Уолтер Лэнг / Walter Lang, Чарльз Ламонт / Charles Lamont) [1939 2xDVD5 Custom] MVO + Origina Galfimbul 81301237767.57 GB 0 0 1438589039

11:03

3-Авг-15

Мультсериалы ·· Маленькая принцесса / Petite Princesse / Сезон: 1, 3 / Серии: 49 из 100 (Эдвард Фостер / Edward Foster) [2006-2010, Мультсериал, детский, семейный, приключения, SATRip] Dub Galfimbul 70168350726.53 GB 0 0 1424120857

00:07

17-Фев-15

Зарубежные фильмы до 2016 ·· Маленькая принцесса / The Little Princess (Уолтер Лэнг / Walter Lang / Уильям А. Сайтер / William A. Seiter) [1939, США, Мюзикл, драма, комедия, семейный, DVDRip] MVO (ООО "Светла") + MVO (РенТВ) + AVO (Сергей Визгунов) + Sub Eng + Original Galfimbul 20903337751.95 GB 0 0 1377075195

11:53

21-Авг-13

Зарубежные фильмы до 2016 ·· Моя маленькая принцесса / My Little Princess (Ева Ионеско / Eva Ionesco) [2011, Франция, драма, DVD9] MVO [лицензия] Sub Rus + Original Fre L 76045946887.08 GB 0 0 1332859200

17:40

27-Мар-12

Зарубежные фильмы до 2016 ·· Моя маленькая принцесса / My Little Princess / I'm Not a F**king Princess (Ева Ионеско / Eva Ionesco) [2011, Франция, Драма, DVDRip] MVO |Лицензия| L 15674347521.46 GB 0 0 1332859080

17:38

27-Мар-12

Мультфильмы до 2016 ·· Маленькая принцесса / The little princess (Лара Шепхерд/Laura Shepherd ) [1996 г.,Мультипликация, Семейный, Приключение,DVDRip] uzi2009 733931520700 MB 0 0 1293313083

00:38

26-Дек-10

Мультфильмы до 2016 ·· Мой маленький пони. Прогулка принцессы / My Little Pony: The Princess Promenade (Виктор Дэл Чили / Victor Dal Chele) [2006, мультфильм, DVDRip] VO (ShezzyPaw) + Original damien1990 14690734281.37 GB 0 0 1363732651

01:37

20-Мар-13

Мультфильмы до 2016 ·· Мой маленький пони: Прогулка принцессы / My Little Pony: The Princess Promenade (Виктор Дэл Чили / Victor Dal Chele) [2006 г., мультфильм, DVDRip] VO Sabin 733749360700 MB 0 0 1293309804

23:43

25-Дек-10

Еще никто не оставлял запись к записи скачать торрент Маленькая принцесса . Будь первым!

!Обратная связь