Скачать через торрент Гоголь. Начало Фильм бесплатно в хорошем качестве torrent

Скачивайте на UnionPeer.org фильмы через торрент без регистрации. Новинки кино в хорошем качестве через торрент. На UnionPeer.org можно скачать через торрент фильмы 2014 и 2015 годов. Самые новые фильмы.

Скачать торрент Гоголь. Начало бесплатно через .torrent фильм мультфильм сериал

Если у вас наблюдаются проблемы со скриншотами, переходом по ссылками, скачиванием торрентов - проблемы в блокировщике рекламы AdBlock. #хорошегоДня!


Статистика раздачи
Размер:  1.46 GB   |    Зарегистрирован:  2 месяца 13 дней   |    .torrent скачан:  75 раз   |   
Раздают:  1  
   
Загрузка...
 
Автор Сообщение

Galfimbul

avatar Galfimbul


Гоголь. Начало

Выпущено: Каропрокат
Жанр: приключения, триллер, детектив
Год выпуска: 2017
Продолжительность: 01:46:42
Субтитры: нетРежиссер: Егор БарановВ ролях: Александр Петров, Олег Меньшиков, Евгений Стычкин, Таисия Вилкова, Артем Ткаченко, Юлия Франц, Евгений Сытый, Ян Цапник, Сергей Бадюк, Марта ТимофееваОписание: Казаки, ведьмы, русалки, утопленницы и другие обитатели Диканьки встречаются лицом к лицу со своим создателем Николаем Гоголем, молодым писарем из Петербурга, который страдает загадочными припадками и может общаться с персонажами из потустороннего мира. Вместе со своим начальником, блестящим столичным следователем Яковым Гуро, начинающий писатель приезжает на Полтавщину расследовать таинственные убийства девушек. Здесь же он встречает свою любовь, которой суждено сыграть роковую роль в его судьбе. Но хватит ли юному литератору духу противостоять невообразимому? Ведь по слухам, которые активно разносят напуганные местные жители, за преступлениями стоит не кто иной, как сам Дьявол в обличии черного всадника.Качество видео: WEB-DLRip | Gogol.Nachalo.2017.1080p.WEB-DL.Rus.EliteHD
Формат видео: AVI

Видео: 720x304 (2.37:1), 24.000 fps, XviD build 73 ~1563 kbps avg, 0.30 bit/pixel
Аудио: 48 kHz, AC3 Dolby Digital, 3/2 (L,C,R,l,r) + LFE ch, ~384 kbpsСкачать сэмпл
Format                      : AVI
Format/Info                 : Audio Video Interleave
File size                   : 1.46 GiB
Duration                    : 1 h 46 min
Overall bit rate            : 1 957 kb/s
Writing application         : VirtualDubMod 1.5.10.3 | www.virtualdub-fr.org || (build 2550/release)
Writing library             : VirtualDubMod build 2550/release

Video
ID                          : 0
Format                      : MPEG-4 Visual
Format profile              : Advanced Simple@L5
Format settings, BVOP       : 1
Format settings, QPel       : No
Format settings, GMC        : No warppoints
Format settings, Matrix     : Custom
Codec ID                    : XVID
Codec ID/Hint               : XviD
Duration                    : 1 h 46 min
Bit rate                    : 1 563 kb/s
Width                       : 720 pixels
Height                      : 304 pixels
Display aspect ratio        : 2.35:1
Frame rate                  : 24.000 FPS
Color space                 : YUV
Chroma subsampling          : 4:2:0
Bit depth                   : 8 bits
Scan type                   : Progressive
Compression mode            : Lossy
Bits/(Pixel*Frame)          : 0.298
Stream size                 : 1.17 GiB (80%)
Writing library             : XviD 73

Audio
ID                          : 1
Format                      : AC-3
Format/Info                 : Audio Coding 3
Format settings, Endianness : Big
Codec ID                    : 2000
Duration                    : 1 h 46 min
Bit rate mode               : Constant
Bit rate                    : 384 kb/s
Channel(s)                  : 6 channels
Channel positions           : Front: L C R, Side: L R, LFE
Sampling rate               : 48.0 kHz
Frame rate                  : 31.250 FPS (1536 spf)
Bit depth                   : 16 bits
Compression mode            : Lossy
Stream size                 : 293 MiB (20%)
Alignment                   : Split accross interleaves
Interleave, duration        : 42  ms (1.00 video frame)
Interleave, preload duratio : 500  ms
Service kind                : Complete Main


Трекер:  [ 30-Сен-2017 23:24 ]

  

Скачать .torrent

Размер .torrent файла 15 KB


Размер: 1.46 GB
Хэш (hash) релиза: 6f235e4f414742370a6da92407620617789029ea
Подписка на обновления:

Торренты, похожие на Гоголь. Начало скачать торрент

Форум Название Автор Размер S L Добавлен
Российские фильмы до 2016 ·· Гоголь. Начало (Егор Баранов) [2017, приключения, триллер, детектив, Blu-ray disc 1080p] [RUS] Galfimbul 2023794363418.85 GB 2 0 1511208504

23:08

20-Ноя-17

Российские фильмы до 2016 ·· Гоголь. Начало (Егор Баранов) [2017, приключения, триллер, детектив, BDRip-AVC] Galfimbul 22003870112.05 GB 2 1 1511037086

23:31

18-Ноя-17

Российские фильмы 2016-2017 (Новинки русского кино) ·· Гоголь. Начало (Егор Баранов) [2017 г., приключения, триллер, детектив, WEB-DL 1080p] iTunes Galfimbul 39403596473.67 GB 0 0 1507600222

04:50

10-Окт-17

Российские фильмы 2016-2017 (Новинки русского кино) ·· Гоголь. Начало (Егор Баранов) [2017 г., приключения, триллер, детектив, WEB-DLRip] iTunes Galfimbul 15686021121.46 GB 5 0 1507594227

03:10

10-Окт-17

Российские фильмы 2016-2017 (Новинки русского кино) ·· Гоголь. Начало (Егор Баранов) [2017 г., приключения, триллер, детектив, WEB-DLRip] iTunes Galfimbul 781576178745 MB 3 0 1507594216

03:10

10-Окт-17

Российские фильмы 2016-2017 (Новинки русского кино) ·· Гоголь. Начало (Егор Баранов) [2017 г., приключения, триллер, детектив, WEB-DL 720p] | iTunes Galfimbul 35518834793.31 GB 2 0 1506843475

10:37

1-Окт-17

Российские фильмы до 2016 ·· Гоголь. Начало (Егор Баранов) [2017, приключения, триллер, детектив, WEB-DLRip] Galfimbul 780255232744 MB 2 0 1506836030

08:33

1-Окт-17

Российские фильмы до 2016 ·· Гоголь. Начало (Егор Баранов) [2017, приключения, триллер, детектив, WEB-DLRip-AVC] Galfimbul 15790803231.47 GB 0 0 1506817660

03:27

1-Окт-17

Еще никто не оставлял запись к записи скачать торрент Гоголь. Начало . Будь первым!

!Обратная связь