Скачать через торрент Дохлая кошка Фильм бесплатно в хорошем качестве torrent

Скачивайте на UnionPeer.org фильмы через торрент без регистрации. Новинки кино в хорошем качестве через торрент. На UnionPeer.org можно скачать через торрент фильмы 2014 и 2015 годов. Самые новые фильмы.

Скачать торрент Дохлая кошка бесплатно через .torrent фильм мультфильм сериал

Если у вас наблюдаются проблемы со скриншотами, переходом по ссылками, скачиванием торрентов - проблемы в блокировщике рекламы AdBlock. #хорошегоДня!


Статистика раздачи
Размер:  1.09 GB   |    Зарегистрирован:  2 месяца 12 дней   |    .torrent скачан:  25 раз   |   
Раздают:  1  
   
Загрузка...
 
Автор Сообщение

Galfimbul

avatar Galfimbul


Дохлая кошка

Жанр: драма, мелодрама
Год выпуска: 2008
Продолжительность: 01:12:55

Режиссёр: Яков Каждан

В ролях: Григорий Калинин, Надежда Хренкова, Алексей Алешин

Описание: Конспирологическое сознание подсказывает герою этого фильма невероятные объяснения. Фильм построен на соединении (псевдо) документальных и постановочных материалов.

Релиз от:

Сэмпл: https://yadi.sk/i/MEfMAybA3NMirm
http://www.imdb.com/title/tt1377677/


Качество видео: DVDRip
Формат видео: AVI

Видео: 704x384 (1.83:1), 25 fps, XviD build 50 ~1928 kbps avg, 0.28 bit/pixel
Аудио: 48 kHz, AC3 Dolby Digital, 2/0 (L,R) ch, ~192 kbps
Общее
Полное имя : D:\Dead Cat (2008) DVDRip.avi
Формат : AVI
Формат/Информация : Audio Video Interleave
Размер файла : 1,09 Гбайт
Продолжительность : 1 ч. 12 м.
Общий поток : 2131 Кбит/сек
Название фильма : Dead Cat (2008) DVDRip
Режиссёр : Maksmet
Программа кодирования : VirtualDubModRus 1.5.10.2 (build 2542/release)
Примечание : 01.10.2017

Видео
Идентификатор : 0
Формат : MPEG-4 Visual
Профиль формата : Advanced Simple@L5
Параметр BVOP формата : 1
Параметр QPel формата : Нет
Параметр GMC формата : Без точки перехода
Параметр матрицы формата : Выборочная
Идентификатор кодека : XVID
Идентификатор кодека/Подсказка : XviD
Продолжительность : 1 ч. 12 м.
Битрейт : 1929 Кбит/сек
Ширина : 704 пикселя
Высота : 384 пикселя
Соотношение сторон : 1,85:1
Частота кадров : 25,000 кадров/сек
Цветовое пространство : YUV
Субдискретизация насыщенности : 4:2:0
Битовая глубина : 8 бит
Тип развёртки : Прогрессивная
Метод сжатия : С потерями
Бит/(Пиксели*Кадры) : 0.285
Размер потока : 1006 Мбайт (91%)
Библиотека кодирования : XviD 1.2.1 (UTC 2008-12-04)

Аудио
Идентификатор : 1
Формат : AC-3
Формат/Информация : Audio Coding 3
Параметр Endianness формата : Big
Идентификатор кодека : 2000
Продолжительность : 1 ч. 12 м.
Вид битрейта : Постоянный
Битрейт : 192 Кбит/сек
Каналы : 2 канала
Расположение каналов : Front: L R
Частота : 48,0 КГц
Частота кадров : 31,250 кадров/сек (1536 SPF)
Битовая глубина : 16 бит
Метод сжатия : С потерями
Размер потока : 100 Мбайт (9%)
Выравнивание : Разделение по промежуткам
Продолжительность промежутка : 40 мс. (1,00 видеокадр)
Время предзагрузки промежутка : 500 мс.
ServiceKind/String : Complete Main


Трекер:  [ 01-Окт-2017 07:24 ]

  

Скачать .torrent

Размер .torrent файла 11 KB


Размер: 1.09 GB
Хэш (hash) релиза: 85ea3b0ac664d6cb9aa27359d7aa378e4e0a2fc0
Подписка на обновления:

Торренты, похожие на Дохлая кошка скачать торрент

Форум Название Автор Размер S L Добавлен
Российские фильмы до 2016 ·· Дохлая кошка (Яков Каждан) [2008, Россия, драма, мелодрама, DVD5] + Sub Eng + Original Rus Galfimbul 45473198084.24 GB 0 0 1412776452

16:54

8-Окт-14

Еще никто не оставлял запись к записи скачать торрент Дохлая кошка . Будь первым!

!Обратная связь