Скачать через торрент музыку Monster Musume no Iru Nichijou Повседневная жизнь с девушками-монстрами - 2015-2016 г., FLAC бесплатно без регистрации torrent

Если у вас наблюдаются проблемы со скриншотами, переходом по ссылками, скачиванием торрентов - проблемы в блокировщике рекламы AdBlock. #хорошегоДня!


Статистика раздачи
Размер:  2.5 GB   |    Зарегистрирован:  2 месяца 9 дней   |    .torrent скачан:  8 раз   |   
Раздают:  1  
   
Загрузка...
 
Автор Сообщение

Galfimbul

avatar Galfimbul


Повседневная жизнь с девушками-монстрамиОбщие характеристики:
Производство:
Год выпуска: 2015-2016
Формат:
Частота: 44100Гц
Продолжительность: 105 треков - 5:14:19Альбомы:
<div class="sp-wrap">
<div class="sp-head folded">2015 - Character Song Vol.1</div>
<div class="sp-body">
Character Song Vol.1
Список треков:
01. Kisu mi Da~arin [3:42]
02. My Sweet Feelings [4:20]
03. Sai Kosoku Forinrabu (Miia Ver.) [3:51]
04. Kisu mi Da~arin (Instrumental) [3:42]
05. My Sweet Feelings (Instrumental) [4:20]
Проверка:
<div class="post-box">
<div class="sp-wrap">
<div class="sp-head folded">Открыть</div>
<div class="sp-body">
<div class="sp-wrap">
<div class="sp-head folded">ЕАС Лог</div>
<div class="sp-body">

Exact Audio Copy V1.3 from 2. September 2016

EAC extraction logfile from 12. September 2017, 20:33

Sora Amamiya / Monster Musume no Iru Nichijou - Character Song Vol.1

Used drive : PLEXTOR CD-R PREMIUM2 Adapter: 1 ID: 1

Read mode : SecureUtilize accurate stream : YesDefeat audio cache : YesMake use of C2 pointers : No

Read offset correction : 30Overread into Lead-In and Lead-Out : YesFill up missing offset samples with silence : YesDelete leading and trailing silent blocks : NoNull samples used in CRC calculations : YesUsed interface : Native Win32 interface for Win NT & 2000Gap handling : Appended to previous track

Used output format : User Defined EncoderSelected bitrate : 1024 kBit/sQuality : HighAdd ID3 tag : NoCommand line compressor : C:\Program Files (x86)\Exact Audio Copy RIP\Flac\flac.exeAdditional command line options : -V -8 -T "Genre=%genre%" -T "Artist=%artist%" -T "Title=%title%" -T "Album=%albumtitle%" -T "Date=%year%" -T "Tracknumber=%tracknr%" -T "Comment=%comment%" %source%

TOC of the extracted CD

Track | Start | Length | Start sector | End sector --------------------------------------------------------- 1 | 0:00.00 | 3:41.40 | 0 | 16614 2 | 3:41.40 | 4:20.10 | 16615 | 36124 3 | 8:01.50 | 3:50.45 | 36125 | 53419 4 | 11:52.20 | 3:41.40 | 53420 | 70034 5 | 15:33.60 | 4:20.35 | 70035 | 89569

Track 1

Filename D:\Work\RIPs\01 - Kisu mi Da~arin.wav

Pre-gap length 0:00:02.00

Peak level 96.8 % Extraction speed 1.9 X Track quality 100.0 % Test CRC 37D7A962 Copy CRC 37D7A962 Accurately ripped (confidence 5) [E4A40EFE] (AR v2) Copy OK

Track 2

Filename D:\Work\RIPs\02 - My Sweet Feelings.wav

Pre-gap length 0:00:02.25

Peak level 97.0 % Extraction speed 1.9 X Track quality 100.0 % Test CRC 42724898 Copy CRC 42724898 Accurately ripped (confidence 5) [CD1AC875] (AR v2) Copy OK

Track 3

Filename D:\Work\RIPs\03 - Sai Kosoku Forinrabu (Mia ver.).wav

Pre-gap length 0:00:02.25

Peak level 97.0 % Extraction speed 1.8 X Track quality 100.0 % Test CRC 3C116E6F Copy CRC 3C116E6F Accurately ripped (confidence 5) [509921D4] (AR v2) Copy OK

Track 4

Filename D:\Work\RIPs\04 - Kisu mi Da~arin (Instrumental).wav

Pre-gap length 0:00:02.25

Peak level 97.0 % Extraction speed 1.9 X Track quality 100.0 % Test CRC CF652605 Copy CRC CF652605 Accurately ripped (confidence 5) [ABF2DF88] (AR v2) Copy OK

Track 5

Filename D:\Work\RIPs\05 - My Sweet Feelings (Instrumental).wav

Pre-gap length 0:00:02.25

Peak level 96.8 % Extraction speed 1.9 X Track quality 100.0 % Test CRC D423D33E Copy CRC D423D33E Accurately ripped (confidence 5) [37EB7B16] (AR v2) Copy OK

All tracks accurately ripped

No errors occurred

End of status report

---- CUETools DB Plugin V2.1.6

[CTDB TOCID: dWLjZ16CitMl3qbMhbfRzLpp.e4-] foundSubmit result: dWLjZ16CitMl3qbMhbfRzLpp.e4- has been confirmedTrack | CTDB Status 1 | (26/26) Accurately ripped 2 | (26/26) Accurately ripped 3 | (26/26) Accurately ripped 4 | (26/26) Accurately ripped 5 | (25/26) Accurately ripped

==== Log checksum C2C4262F3E6D78620F499322E82352D1D0E6AF2111C492E8C6C05E7C98367317 ====
</div>
</div>
</div>
</div>
</div>
Character Song Vol.2
Список треков:
01. PAPISM [4:19]
02. Pa-pi Dansu [3:37]
03. Sai Kosoku Forinrabu (Papi Ver.) [3:51]
04. PAPISM (Instrumental) [4:19]
05. Pa-pi Dansu (Instrumental) [3:37]
Проверка:
<div class="post-box">
<div class="sp-wrap">
<div class="sp-head folded">Открыть</div>
<div class="sp-body">
<div class="sp-wrap">
<div class="sp-head folded">ЕАС Лог</div>
<div class="sp-body">

Exact Audio Copy V1.3 from 2. September 2016

EAC extraction logfile from 12. September 2017, 21:16

Ari Ozawa / Monster Musume no Iru Nichijou - Character Song Vol.2

Used drive : PLEXTOR CD-R PREMIUM2 Adapter: 1 ID: 1

Read mode : SecureUtilize accurate stream : YesDefeat audio cache : YesMake use of C2 pointers : No

Read offset correction : 30Overread into Lead-In and Lead-Out : YesFill up missing offset samples with silence : YesDelete leading and trailing silent blocks : NoNull samples used in CRC calculations : YesUsed interface : Native Win32 interface for Win NT & 2000Gap handling : Appended to previous track

Used output format : User Defined EncoderSelected bitrate : 1024 kBit/sQuality : HighAdd ID3 tag : NoCommand line compressor : C:\Program Files (x86)\Exact Audio Copy RIP\Flac\flac.exeAdditional command line options : -V -8 -T "Genre=%genre%" -T "Artist=%artist%" -T "Title=%title%" -T "Album=%albumtitle%" -T "Date=%year%" -T "Tracknumber=%tracknr%" -T "Comment=%comment%" %source%

TOC of the extracted CD

Track | Start | Length | Start sector | End sector --------------------------------------------------------- 1 | 0:00.00 | 4:19.30 | 0 | 19454 2 | 4:19.30 | 3:36.55 | 19455 | 35709 3 | 7:56.10 | 3:50.45 | 35710 | 53004 4 | 11:46.55 | 4:19.30 | 53005 | 72459 5 | 16:06.10 | 3:37.05 | 72460 | 88739

Track 1

Filename D:\Work\RIPs\01 - PAPISM.wav

Pre-gap length 0:00:02.00

Peak level 96.8 % Extraction speed 1.9 X Track quality 100.0 % Test CRC 980745A5 Copy CRC 980745A5 Accurately ripped (confidence 5) [757DF89D] (AR v2) Copy OK

Track 2

Filename D:\Work\RIPs\02 - Pa-pi Dansu.wav

Pre-gap length 0:00:02.25

Peak level 97.3 % Extraction speed 1.8 X Track quality 100.0 % Test CRC 0626F23B Copy CRC 0626F23B Accurately ripped (confidence 5) [35E57FF1] (AR v2) Copy OK

Track 3

Filename D:\Work\RIPs\03 - Sai Kosoku Forinrabu (Papi ver. ).wav

Pre-gap length 0:00:02.25

Peak level 97.0 % Extraction speed 1.8 X Track quality 100.0 % Test CRC 0A24E720 Copy CRC 0A24E720 Accurately ripped (confidence 5) [F100CA13] (AR v2) Copy OK

Track 4

Filename D:\Work\RIPs\04 - PAPISM (Instrumental).wav

Pre-gap length 0:00:02.25

Peak level 97.0 % Extraction speed 1.9 X Track quality 100.0 % Test CRC 765EF17E Copy CRC 765EF17E Accurately ripped (confidence 5) [FDD40B34] (AR v2) Copy OK

Track 5

Filename D:\Work\RIPs\05 - Pa-pi Dansu (Instrumental).wav

Pre-gap length 0:00:02.25

Peak level 97.2 % Extraction speed 1.8 X Track quality 100.0 % Test CRC 0E353F6D Copy CRC 0E353F6D Accurately ripped (confidence 5) [5BC9E13D] (AR v2) Copy OK

All tracks accurately ripped

No errors occurred

End of status report

---- CUETools DB Plugin V2.1.6

[CTDB TOCID: r4Cx8dP9JPgemugTRfdEyTBh0h0-] foundSubmit result: r4Cx8dP9JPgemugTRfdEyTBh0h0- has been confirmedTrack | CTDB Status 1 | (31/31) Accurately ripped 2 | (31/31) Accurately ripped 3 | (31/31) Accurately ripped 4 | (31/31) Accurately ripped 5 | (31/31) Accurately ripped

==== Log checksum 421D7D5B33C599F515FF0FE077BAF1F5227E301DC2BD872B0D8A0C694835E80B ====
</div>
</div>
</div>
</div>
</div>
Character Song Vol.3
Список треков:
01. Nobility [4:04]
02. Monsuta Rokku! [4:09]
03. Sai Kosoku Forinrabu (Centorea Ver.) [3:51]
04. Nobility (Instrumental) [4:04]
05. Monsuta Rokku! (Instrumental) [4:10]
Проверка:
<div class="post-box">
<div class="sp-wrap">
<div class="sp-head folded">Открыть</div>
<div class="sp-body">
<div class="sp-wrap">
<div class="sp-head folded">ЕАС Лог</div>
<div class="sp-body">

Exact Audio Copy V1.3 from 2. September 2016

EAC extraction logfile from 12. September 2017, 21:52

Natsuki Aikawa / Monster Musume no Iru Nichijou - Character Song Vol.3

Used drive : PLEXTOR CD-R PREMIUM2 Adapter: 1 ID: 1

Read mode : SecureUtilize accurate stream : YesDefeat audio cache : YesMake use of C2 pointers : No

Read offset correction : 30Overread into Lead-In and Lead-Out : YesFill up missing offset samples with silence : YesDelete leading and trailing silent blocks : NoNull samples used in CRC calculations : YesUsed interface : Native Win32 interface for Win NT & 2000Gap handling : Appended to previous track

Used output format : User Defined EncoderSelected bitrate : 1024 kBit/sQuality : HighAdd ID3 tag : NoCommand line compressor : C:\Program Files (x86)\Exact Audio Copy RIP\Flac\flac.exeAdditional command line options : -V -8 -T "Genre=%genre%" -T "Artist=%artist%" -T "Title=%title%" -T "Album=%albumtitle%" -T "Date=%year%" -T "Tracknumber=%tracknr%" -T "Comment=%comment%" %source%

TOC of the extracted CD

Track | Start | Length | Start sector | End sector --------------------------------------------------------- 1 | 0:00.00 | 4:04.25 | 0 | 18324 2 | 4:04.25 | 4:09.35 | 18325 | 37034 3 | 8:13.60 | 3:50.45 | 37035 | 54329 4 | 12:04.30 | 4:04.25 | 54330 | 72654 5 | 16:08.55 | 4:09.60 | 72655 | 91389

Track 1

Filename D:\Work\RIPs\01 - Nobility.wav

Pre-gap length 0:00:02.00

Peak level 97.0 % Extraction speed 1.8 X Track quality 99.9 % Test CRC A421078D Copy CRC A421078D Accurately ripped (confidence 5) [68E769E1] (AR v2) Copy OK

Track 2

Filename D:\Work\RIPs\02 - Monsuta Rokku!.wav

Pre-gap length 0:00:02.25

Peak level 96.9 % Extraction speed 1.9 X Track quality 100.0 % Test CRC D59AB6B3 Copy CRC D59AB6B3 Accurately ripped (confidence 5) [518F8F25] (AR v2) Copy OK

Track 3

Filename D:\Work\RIPs\03 - Sai Kosoku Forinrabu (Centorea Ver.).wav

Pre-gap length 0:00:02.25

Peak level 96.8 % Extraction speed 1.8 X Track quality 100.0 % Test CRC C7D7C1E3 Copy CRC C7D7C1E3 Accurately ripped (confidence 5) [6D4A82A5] (AR v2) Copy OK

Track 4

Filename D:\Work\RIPs\04 - Nobility (Instrumental).wav

Pre-gap length 0:00:02.25

Peak level 97.0 % Extraction speed 1.8 X Track quality 99.9 % Test CRC 4D202A09 Copy CRC 4D202A09 Accurately ripped (confidence 5) [49D69E3D] (AR v2) Copy OK

Track 5

Filename D:\Work\RIPs\05 - Monsutā Rokku! (Instrumental).wav

Pre-gap length 0:00:02.25

Peak level 96.9 % Extraction speed 1.8 X Track quality 100.0 % Test CRC A80D5416 Copy CRC A80D5416 Accurately ripped (confidence 5) [90F920A7] (AR v2) Copy OK

All tracks accurately ripped

No errors occurred

End of status report

---- CUETools DB Plugin V2.1.6

[CTDB TOCID: cvw8VEAMFijUmxYECcf9dCG7Oms-] foundSubmit result: cvw8VEAMFijUmxYECcf9dCG7Oms- has been confirmedTrack | CTDB Status 1 | (21/21) Accurately ripped 2 | (21/21) Accurately ripped 3 | (21/21) Accurately ripped 4 | (21/21) Accurately ripped 5 | (21/21) Accurately ripped

==== Log checksum 6AD29C2E60936F961736BBCB97E6E943667D7350858017B7C0968CD6CBE22949 ====
</div>
</div>
</div>
</div>
</div>
Character Song Vol.4
Список треков:
01. Ama ga sa no uta [5:07]
02. Hana Nota [4:17]
03. Sai kosoku Forinrabu (Suu Ver.) [3:52]
04. Ama ga sa no uta (Instrumental) [5:07]
05. Hana Nota (Instrumental) [4:14]
Проверка:
<div class="post-box">
<div class="sp-wrap">
<div class="sp-head folded">Открыть</div>
<div class="sp-body">
<div class="sp-wrap">
<div class="sp-head folded">ЕАС Лог</div>
<div class="sp-body">

Exact Audio Copy V1.3 from 2. September 2016

EAC extraction logfile from 12. September 2017, 22:33

Mayuka Nomura / Monster Musume no Iru Nichijou - Character Song Vol.4

Used drive : PLEXTOR CD-R PREMIUM2 Adapter: 1 ID: 1

Read mode : SecureUtilize accurate stream : YesDefeat audio cache : YesMake use of C2 pointers : No

Read offset correction : 30Overread into Lead-In and Lead-Out : YesFill up missing offset samples with silence : YesDelete leading and trailing silent blocks : NoNull samples used in CRC calculations : YesUsed interface : Native Win32 interface for Win NT & 2000Gap handling : Appended to previous track

Used output format : User Defined EncoderSelected bitrate : 1024 kBit/sQuality : HighAdd ID3 tag : NoCommand line compressor : C:\Program Files (x86)\Exact Audio Copy RIP\Flac\flac.exeAdditional command line options : -V -8 -T "Genre=%genre%" -T "Artist=%artist%" -T "Title=%title%" -T "Album=%albumtitle%" -T "Date=%year%" -T "Tracknumber=%tracknr%" -T "Comment=%comment%" %source%

TOC of the extracted CD

Track | Start | Length | Start sector | End sector --------------------------------------------------------- 1 | 0:00.00 | 5:07.00 | 0 | 23024 2 | 5:07.00 | 4:17.00 | 23025 | 42299 3 | 9:24.00 | 3:52.00 | 42300 | 59699 4 | 13:16.00 | 5:07.00 | 59700 | 82724 5 | 18:23.00 | 4:14.18 | 82725 | 101792

Track 1

Filename D:\Work\RIPs\01 - Ama ga sa no uta.wav

Pre-gap length 0:00:02.00

Peak level 98.8 % Extraction speed 1.9 X Track quality 100.0 % Test CRC 6E7D93BF Copy CRC 6E7D93BF Accurately ripped (confidence 5) [BD75C01D] (AR v2) Copy OK

Track 2

Filename D:\Work\RIPs\02 - Hana Nota.wav

Pre-gap length 0:00:02.57

Peak level 98.8 % Extraction speed 1.8 X Track quality 100.0 % Test CRC 2A694337 Copy CRC 2A694337 Accurately ripped (confidence 5) [A0091A38] (AR v2) Copy OK

Track 3

Filename D:\Work\RIPs\03 - Sai kosoku Forinrabu (Suu Ver.).wav

Pre-gap length 0:00:02.57

Peak level 98.8 % Extraction speed 1.8 X Track quality 100.0 % Test CRC DC5C4B5A Copy CRC DC5C4B5A Accurately ripped (confidence 5) [2F42B06B] (AR v2) Copy OK

Track 4

Filename D:\Work\RIPs\04 - Ama ga sa no uta (Instrumental).wav

Pre-gap length 0:00:04.57

Peak level 98.8 % Extraction speed 1.9 X Track quality 100.0 % Test CRC 9338B60B Copy CRC 9338B60B Accurately ripped (confidence 5) [3C4692D4] (AR v2) Copy OK

Track 5

Filename D:\Work\RIPs\05 - Hana Nota (Instrumental).wav

Pre-gap length 0:00:02.57

Peak level 98.8 % Extraction speed 1.9 X Track quality 100.0 % Test CRC 261214AF Copy CRC 261214AF Accurately ripped (confidence 5) [D7B17B67] (AR v2) Copy OK

All tracks accurately ripped

No errors occurred

End of status report

---- CUETools DB Plugin V2.1.6

[CTDB TOCID: RsVO_FXPreFD0.ga7eCnSwLLRi4-] foundSubmit result: RsVO_FXPreFD0.ga7eCnSwLLRi4- has been confirmedTrack | CTDB Status 1 | (21/21) Accurately ripped 2 | (21/21) Accurately ripped 3 | (21/21) Accurately ripped 4 | (21/21) Accurately ripped 5 | (21/21) Accurately ripped

==== Log checksum C14E8E996E686FDD006CB1BAE43D99FB7F7CCBC148B84ECC475944A1F4371258 ====
</div>
</div>
</div>
</div>
</div>
Character Song Vol.5
Список треков:
01. Moon and Mermaid [4:01]
02. Frothy Love [3:43]
03. Sai Kosoku Forinrabu (Mero Ver.) [3:52]
04. Moon and Mermaid (Instrumental) [4:01]
05. Frothy Love (Instrumental) [3:40]
Проверка:
<div class="post-box">
<div class="sp-wrap">
<div class="sp-head folded">Открыть</div>
<div class="sp-body">
<div class="sp-wrap">
<div class="sp-head folded">ЕАС Лог</div>
<div class="sp-body">

Exact Audio Copy V1.3 from 2. September 2016

EAC extraction logfile from 12. September 2017, 23:09

Haruka Yamazaki / Monster Musume no Iru Nichijou - Character Song Vol.5

Used drive : PLEXTOR CD-R PREMIUM2 Adapter: 1 ID: 1

Read mode : SecureUtilize accurate stream : YesDefeat audio cache : YesMake use of C2 pointers : No

Read offset correction : 30Overread into Lead-In and Lead-Out : YesFill up missing offset samples with silence : YesDelete leading and trailing silent blocks : NoNull samples used in CRC calculations : YesUsed interface : Native Win32 interface for Win NT & 2000Gap handling : Appended to previous track

Used output format : User Defined EncoderSelected bitrate : 1024 kBit/sQuality : HighAdd ID3 tag : NoCommand line compressor : C:\Program Files (x86)\Exact Audio Copy RIP\Flac\flac.exeAdditional command line options : -V -8 -T "Genre=%genre%" -T "Artist=%artist%" -T "Title=%title%" -T "Album=%albumtitle%" -T "Date=%year%" -T "Tracknumber=%tracknr%" -T "Comment=%comment%" %source%

TOC of the extracted CD

Track | Start | Length | Start sector | End sector --------------------------------------------------------- 1 | 0:00.00 | 4:01.00 | 0 | 18074 2 | 4:01.00 | 3:43.00 | 18075 | 34799 3 | 7:44.00 | 3:52.00 | 34800 | 52199 4 | 11:36.00 | 4:01.00 | 52200 | 70274 5 | 15:37.00 | 3:40.18 | 70275 | 86792

Track 1

Filename D:\Work\RIPs\01 - Moon and Mermaid.wav

Pre-gap length 0:00:02.00

Peak level 98.8 % Extraction speed 1.8 X Track quality 99.9 % Test CRC 28F191CD Copy CRC 28F191CD Accurately ripped (confidence 6) [E96DF9ED] (AR v2) Copy OK

Track 2

Filename D:\Work\RIPs\02 - Frothy Love.wav

Pre-gap length 0:00:02.57

Peak level 98.8 % Extraction speed 1.9 X Track quality 100.0 % Test CRC 46D683C4 Copy CRC 46D683C4 Accurately ripped (confidence 6) [C3FA07D8] (AR v2) Copy OK

Track 3

Filename D:\Work\RIPs\03 - Sai Kosoku Forinrabu (Mero Ver.).wav

Pre-gap length 0:00:02.57

Peak level 98.8 % Extraction speed 1.8 X Track quality 100.0 % Test CRC 3C07F3CC Copy CRC 3C07F3CC Accurately ripped (confidence 6) [D621E25D] (AR v2) Copy OK

Track 4

Filename D:\Work\RIPs\04 - Moon and Mermaid (Instrumental).wav

Pre-gap length 0:00:04.57

Peak level 98.8 % Extraction speed 1.8 X Track quality 99.9 % Test CRC FC260826 Copy CRC FC260826 Accurately ripped (confidence 6) [45BB5C3D] (AR v2) Copy OK

Track 5

Filename D:\Work\RIPs\05 - Frothy Love (Instrumental).wav

Pre-gap length 0:00:02.57

Peak level 98.8 % Extraction speed 1.8 X Track quality 100.0 % Test CRC 1992809C Copy CRC 1992809C Accurately ripped (confidence 6) [560D0D89] (AR v2) Copy OK

All tracks accurately ripped

No errors occurred

End of status report

---- CUETools DB Plugin V2.1.6

[CTDB TOCID: JfUnDYNRFY05hvCemJBVMhQhhNE-] foundSubmit result: JfUnDYNRFY05hvCemJBVMhQhhNE- has been confirmedTrack | CTDB Status 1 | (22/22) Accurately ripped 2 | (22/22) Accurately ripped 3 | (22/22) Accurately ripped 4 | (22/22) Accurately ripped 5 | (21/22) Accurately ripped

==== Log checksum A29A72A18B3F3560B23FF62D35715A7FE76FF8E37D8B0FFDA950540545DA6BE6 ====
</div>
</div>
</div>
</div>
</div>
Character Song Vol.6
Список треков:
01. Rachnera Arachnera [4:48]
02. Belle Sadique [4:00]
03. Sai Kosoku Forinrabu (Rachnera Ver.) [3:52]
04. Rachnera Arachnera (Instrumental) [4:48]
05. Belle Sadique (Instrumental) [3:57]
Проверка:
<div class="post-box">
<div class="sp-wrap">
<div class="sp-head folded">Открыть</div>
<div class="sp-body">
<div class="sp-wrap">
<div class="sp-head folded">ЕАС Лог</div>
<div class="sp-body">

Exact Audio Copy V1.3 from 2. September 2016

EAC extraction logfile from 12. September 2017, 23:46

Sakura Nakamura / Monster Musume no Iru Nichijou - Character Song Vol.6

Used drive : PLEXTOR CD-R PREMIUM2 Adapter: 1 ID: 1

Read mode : SecureUtilize accurate stream : YesDefeat audio cache : YesMake use of C2 pointers : No

Read offset correction : 30Overread into Lead-In and Lead-Out : YesFill up missing offset samples with silence : YesDelete leading and trailing silent blocks : NoNull samples used in CRC calculations : YesUsed interface : Native Win32 interface for Win NT & 2000Gap handling : Appended to previous track

Used output format : User Defined EncoderSelected bitrate : 1024 kBit/sQuality : HighAdd ID3 tag : NoCommand line compressor : C:\Program Files (x86)\Exact Audio Copy RIP\Flac\flac.exeAdditional command line options : -V -8 -T "Genre=%genre%" -T "Artist=%artist%" -T "Title=%title%" -T "Album=%albumtitle%" -T "Date=%year%" -T "Tracknumber=%tracknr%" -T "Comment=%comment%" %source%

TOC of the extracted CD

Track | Start | Length | Start sector | End sector --------------------------------------------------------- 1 | 0:00.00 | 4:48.00 | 0 | 21599 2 | 4:48.00 | 4:00.00 | 21600 | 39599 3 | 8:48.00 | 3:52.00 | 39600 | 56999 4 | 12:40.00 | 4:48.00 | 57000 | 78599 5 | 17:28.00 | 3:57.18 | 78600 | 96392

Track 1

Filename D:\Work\RIPs\01 - Rachnera Arachnera.wav

Pre-gap length 0:00:02.00

Peak level 98.8 % Extraction speed 1.9 X Track quality 100.0 % Test CRC 7FAA1975 Copy CRC 7FAA1975 Accurately ripped (confidence 6) [26ACF903] (AR v2) Copy OK

Track 2

Filename D:\Work\RIPs\02 - Belle Sadique.wav

Pre-gap length 0:00:02.57

Peak level 98.8 % Extraction speed 1.8 X Track quality 99.9 % Test CRC 906EE799 Copy CRC 906EE799 Accurately ripped (confidence 6) [443D9802] (AR v2) Copy OK

Track 3

Filename D:\Work\RIPs\03 - Sai Kosoku Forinrabu (Rachnera Ver.).wav

Pre-gap length 0:00:02.57

Peak level 98.8 % Extraction speed 1.9 X Track quality 100.0 % Test CRC DEB9B17C Copy CRC DEB9B17C Accurately ripped (confidence 6) [C1625460] (AR v2) Copy OK

Track 4

Filename D:\Work\RIPs\04 - Rachnera Arachnera (Instrumental).wav

Pre-gap length 0:00:04.57

Peak level 98.8 % Extraction speed 1.9 X Track quality 100.0 % Test CRC D5B19432 Copy CRC D5B19432 Accurately ripped (confidence 6) [D22DA534] (AR v2) Copy OK

Track 5

Filename D:\Work\RIPs\05 - Belle Sadique (Instrumental).wav

Pre-gap length 0:00:02.57

Peak level 98.8 % Extraction speed 1.8 X Track quality 100.0 % Test CRC 52722786 Copy CRC 52722786 Accurately ripped (confidence 6) [3896707E] (AR v2) Copy OK

All tracks accurately ripped

No errors occurred

End of status report

---- CUETools DB Plugin V2.1.6

[CTDB TOCID: yQwkADh_hgxyD4ifCvJNeX54wL8-] foundSubmit result: yQwkADh_hgxyD4ifCvJNeX54wL8- has been confirmedTrack | CTDB Status 1 | (21/21) Accurately ripped 2 | (21/21) Accurately ripped 3 | (21/21) Accurately ripped 4 | (21/21) Accurately ripped 5 | (21/21) Accurately ripped

==== Log checksum FE8F1566765FCCE51263753AF9E61E95445914A1D5D7E17702C9E48A5851FAB9 ====
</div>
</div>
</div>
</div>
</div>
OST
Список треков:
01. Kyo Dada ~arinto Deto [1:42]
02. Watashi…Kowaku Nante nai yo……? [1:26]
03. Taiongaagaru Made Matte [1:08]
04. THE TRIED [1:34]
05. YES! Trick [1:16]
06. Daijobu, Daijobu [1:35]
07. Masani Unmei! [2:26]
08. Watashi no Chusei, Uketotte Kurerudarou ka……?! [1:19]
09. Arigato [1:53]
10. Masuta ga Daisukida ka ra [1:50]
11. Unmei o Kanjimasu wa! [1:34]
12. Hiren Chudoku [1:56]
13. Oshiokiyo [1:32]
14. Anmari Oita ga Sugirukara... [1:21]
15. Ga wa De~yurahan [1:39]
16. Deto Kaishi [1:18]
17. Nani Chirachira mi teru no? [1:34]
18. Kimochii…? [1:03]
19. Hirefuse, Moe Buta-domo! [1:23]
20. The Inter-species Exchange Bill Security Bureau [1:14]
21. Kyodai-ka Fanfare [0:18]
22. Suu vs ki [1:29]
23. Toko shi Nasai! [1:15]
24. Ijo Sonomono [1:02]
25. Shoshisenban! [1:20]
26. Donimo Hikkakaru [1:27]
27. Hito me ni Tsukanai Tokoro [1:43]
28. Barenakya Heiki yo [1:21]
29. Kefuhakujiyau [1:27]
30. Ikite Kaeretara…… [2:07]
31. Naretemasukara [0:58]
32. Uwaki!? Uwakina no!? [0:56]
33. Shunenbukai Hebi Musume [0:59]
34. Ai no Tohiko [0:58]
35. Shinukatoomotta [0:56]
36. Kanojotachi wa Jonetsu-tekidakara [0:57]
37. Otokonokodesho. Gaman shi Nasai. [1:10]
38. Tanin no Furi, Tanin no Furi [0:57]
39. On'nanoko no Yawaraka-sa [1:48]
40. Kon'nani Nurete… [0:57]
41. Benkyo shi teru nda [1:37]
42. Kimi ni Shika Dekinai Koto [2:01]
43. Monster Musume no Iru Nichijou [1:59]
44. Eburidei ke Momi mi [5:37]
45. Karitakatta [3:40]
Проверка:
<div class="post-box">
<div class="sp-wrap">
<div class="sp-head folded">Открыть</div>
<div class="sp-body">
<div class="sp-wrap">
<div class="sp-head folded">ЕАС Лог</div>
<div class="sp-body">

Exact Audio Copy V1.3 from 2. September 2016

EAC extraction logfile from 16. September 2017, 13:39

- / Monster Musume no Iru Nichijou - OST

Used drive : PLEXTOR CD-R PREMIUM2 Adapter: 1 ID: 1

Read mode : SecureUtilize accurate stream : YesDefeat audio cache : YesMake use of C2 pointers : No

Read offset correction : 30Overread into Lead-In and Lead-Out : YesFill up missing offset samples with silence : YesDelete leading and trailing silent blocks : NoNull samples used in CRC calculations : YesUsed interface : Native Win32 interface for Win NT & 2000Gap handling : Appended to previous track

Used output format : User Defined EncoderSelected bitrate : 1024 kBit/sQuality : HighAdd ID3 tag : NoCommand line compressor : C:\Program Files (x86)\Exact Audio Copy RIP\Flac\flac.exeAdditional command line options : -V -8 -T "Genre=%genre%" -T "Artist=%artist%" -T "Title=%title%" -T "Album=%albumtitle%" -T "Date=%year%" -T "Tracknumber=%tracknr%" -T "Comment=%comment%" %source%

TOC of the extracted CD

Track | Start | Length | Start sector | End sector --------------------------------------------------------- 1 | 0:00.00 | 1:42.28 | 0 | 7677 2 | 1:42.28 | 1:26.37 | 7678 | 14164 3 | 3:08.65 | 1:08.18 | 14165 | 19282 4 | 4:17.08 | 1:33.48 | 19283 | 26305 5 | 5:50.56 | 1:15.72 | 26306 | 32002 6 | 7:06.53 | 1:35.06 | 32003 | 39133 7 | 8:41.59 | 2:25.56 | 39134 | 50064 8 | 11:07.40 | 1:19.15 | 50065 | 56004 9 | 12:26.55 | 1:53.15 | 56005 | 64494 10 | 14:19.70 | 1:49.62 | 64495 | 72731 11 | 16:09.57 | 1:34.08 | 72732 | 79789 12 | 17:43.65 | 1:55.56 | 79790 | 88470 13 | 19:39.46 | 1:31.66 | 88471 | 95361 14 | 21:11.37 | 1:20.50 | 95362 | 101411 15 | 22:32.12 | 1:39.04 | 101412 | 108840 16 | 24:11.16 | 1:17.59 | 108841 | 114674 17 | 25:29.00 | 1:33.72 | 114675 | 121721 18 | 27:02.72 | 1:03.24 | 121722 | 126470 19 | 28:06.21 | 1:23.11 | 126471 | 132706 20 | 29:29.32 | 1:14.02 | 132707 | 138258 21 | 30:43.34 | 0:18.10 | 138259 | 139618 22 | 31:01.44 | 1:28.52 | 139619 | 146270 23 | 32:30.21 | 1:14.43 | 146271 | 151863 24 | 33:44.64 | 1:01.39 | 151864 | 156477 25 | 34:46.28 | 1:19.55 | 156478 | 162457 26 | 36:06.08 | 1:27.02 | 162458 | 168984 27 | 37:33.10 | 1:43.01 | 168985 | 176710 28 | 39:16.11 | 1:21.31 | 176711 | 182816 29 | 40:37.42 | 1:27.12 | 182817 | 189353 30 | 42:04.54 | 2:06.72 | 189354 | 198875 31 | 44:11.51 | 0:57.63 | 198876 | 203213 32 | 45:09.39 | 0:55.52 | 203214 | 207390 33 | 46:05.16 | 0:58.49 | 207391 | 211789 34 | 47:03.65 | 0:58.21 | 211790 | 216160 35 | 48:02.11 | 0:55.67 | 216161 | 220352 36 | 48:58.03 | 0:56.64 | 220353 | 224616 37 | 49:54.67 | 1:10.19 | 224617 | 229885 38 | 51:05.11 | 0:57.00 | 229886 | 234160 39 | 52:02.11 | 1:47.65 | 234161 | 242250 40 | 53:50.01 | 0:57.11 | 242251 | 246536 41 | 54:47.12 | 1:36.74 | 246537 | 253810 42 | 56:24.11 | 2:00.70 | 253811 | 262880 43 | 58:25.06 | 1:58.62 | 262881 | 271792 44 | 60:23.68 | 5:36.72 | 271793 | 297064 45 | 66:00.65 | 3:40.22 | 297065 | 313586

Track 1

Filename D:\Work\RIPs\01 - Kyo Dada ~arinto Deto.wav

Pre-gap length 0:00:02.00

Peak level 99.6 % Extraction speed 8.1 X Track quality 100.0 % Test CRC D69E8DFE Copy CRC D69E8DFE Accurately ripped (confidence 5) [684C9F93] (AR v2) Copy OK

Track 2

Filename D:\Work\RIPs\02 - Watashi…Kowaku Nante nai yo…….wav

Pre-gap length 0:00:01.61

Peak level 76.9 % Extraction speed 8.1 X Track quality 100.0 % Test CRC 7D47F62E Copy CRC 7D47F62E Accurately ripped (confidence 5) [66D0D3B2] (AR v2) Copy OK

Track 3

Filename D:\Work\RIPs\03 - Taiongaagaru Made Matte.wav

Pre-gap length 0:00:01.20

Peak level 95.1 % Extraction speed 8.0 X Track quality 100.0 % Test CRC B86005FB Copy CRC B86005FB Accurately ripped (confidence 5) [C06C9BC7] (AR v2) Copy OK

Track 4

Filename D:\Work\RIPs\04 - THE TRIED.wav

Pre-gap length 0:00:01.53

Peak level 99.9 % Extraction speed 8.3 X Track quality 100.0 % Test CRC 6BB327DF Copy CRC 6BB327DF Accurately ripped (confidence 5) [3D6AC566] (AR v2) Copy OK

Track 5

Filename D:\Work\RIPs\05 - YES! Trick.wav

Pre-gap length 0:00:01.45

Peak level 99.5 % Extraction speed 8.6 X Track quality 100.0 % Test CRC EF9053F3 Copy CRC EF9053F3 Accurately ripped (confidence 5) [99BCCD9A] (AR v2) Copy OK

Track 6

Filename D:\Work\RIPs\06 - Daijobu, Daijobu.wav

Pre-gap length 0:00:02.02

Peak level 78.9 % Extraction speed 9.1 X Track quality 100.0 % Test CRC 348A3080 Copy CRC 348A3080 Accurately ripped (confidence 5) [58B9DC7A] (AR v2) Copy OK

Track 7

Filename D:\Work\RIPs\07 - Masani Unmei!.wav

Pre-gap length 0:00:01.61

Peak level 99.9 % Extraction speed 8.0 X Track quality 99.9 % Test CRC B9514F99 Copy CRC B9514F99 Accurately ripped (confidence 5) [061A97D5] (AR v2) Copy OK

Track 8

Filename D:\Work\RIPs\08 - Watashi no Chusei, Uketotte Kurerudarou ka……!.wav

Pre-gap length 0:00:01.50

Peak level 94.8 % Extraction speed 9.3 X Track quality 100.0 % Test CRC 0FB4A30D Copy CRC 0FB4A30D Accurately ripped (confidence 5) [57579BC2] (AR v2) Copy OK

Track 9

Filename D:\Work\RIPs\09 - Arigato.wav

Pre-gap length 0:00:01.49

Peak level 98.3 % Extraction speed 8.0 X Track quality 99.9 % Test CRC C4B2B2CB Copy CRC C4B2B2CB Accurately ripped (confidence 5) [6230096F] (AR v2) Copy OK

Track 10

Filename D:\Work\RIPs\10 - Masuta ga Daisukida ka ra.wav

Pre-gap length 0:00:01.57

Peak level 98.6 % Extraction speed 10.4 X Track quality 100.0 % Test CRC 7D097F5C Copy CRC 7D097F5C Accurately ripped (confidence 5) [396BB909] (AR v2) Copy OK

Track 11

Filename D:\Work\RIPs\11 - Unmei o Kanjimasu wa!.wav

Pre-gap length 0:00:01.62

Peak level 99.6 % Extraction speed 10.2 X Track quality 100.0 % Test CRC 956E6B15 Copy CRC 956E6B15 Accurately ripped (confidence 5) [89998A27] (AR v2) Copy OK

Track 12

Filename D:\Work\RIPs\12 - Hiren Chudoku.wav

Pre-gap length 0:00:01.61

Peak level 97.0 % Extraction speed 10.8 X Track quality 100.0 % Test CRC 18A51C3D Copy CRC 18A51C3D Accurately ripped (confidence 5) [A0C3A4FC] (AR v2) Copy OK

Track 13

Filename D:\Work\RIPs\13 - Oshiokiyo.wav

Pre-gap length 0:00:01.72

Peak level 99.9 % Extraction speed 10.5 X Track quality 100.0 % Test CRC B17B30DE Copy CRC B17B30DE Accurately ripped (confidence 5) [54C7F667] (AR v2) Copy OK

Track 14

Filename D:\Work\RIPs\14 - Anmari Oita ga Sugirukara....wav

Pre-gap length 0:00:02.03

Peak level 99.6 % Extraction speed 7.5 X Track quality 99.8 % Test CRC 0504D09C Copy CRC 0504D09C Accurately ripped (confidence 5) [DCA23227] (AR v2) Copy OK

Track 15

Filename D:\Work\RIPs\15 - Ga wa De~yurahan.wav

Pre-gap length 0:00:02.23

Peak level 98.9 % Extraction speed 11.0 X Track quality 100.0 % Test CRC C0A99B54 Copy CRC C0A99B54 Accurately ripped (confidence 5) [BEE0383B] (AR v2) Copy OK

Track 16

Filename D:\Work\RIPs\16 - Deto Kaishi.wav

Pre-gap length 0:00:01.73

Peak level 100.0 % Extraction speed 10.7 X Track quality 100.0 % Test CRC 2600F286 Copy CRC 2600F286 Accurately ripped (confidence 5) [D72AAE52] (AR v2) Copy OK

Track 17

Filename D:\Work\RIPs\17 - Nani Chirachira mi teru no.wav

Pre-gap length 0:00:01.49

Peak level 99.9 % Extraction speed 8.3 X Track quality 99.8 % Test CRC 17EA46ED Copy CRC 17EA46ED Accurately ripped (confidence 5) [E0AF9C70] (AR v2) Copy OK

Track 18

Filename D:\Work\RIPs\18 - Kimochii….wav

Pre-gap length 0:00:01.50

Peak level 99.7 % Extraction speed 10.5 X Track quality 100.0 % Test CRC 22297192 Copy CRC 22297192 Accurately ripped (confidence 5) [3C77E01F] (AR v2) Copy OK

Track 19

Filename D:\Work\RIPs\19 - Hirefuse, Moe Buta-domo!.wav

Pre-gap length 0:00:01.56

Peak level 100.0 % Extraction speed 11.2 X Track quality 100.0 % Test CRC 6FC82000 Copy CRC 6FC82000 Accurately ripped (confidence 5) [65ADD3B0] (AR v2) Copy OK

Track 20

Filename D:\Work\RIPs\20 - The Inter-species Exchange Bill Security Bureau.wav

Pre-gap length 0:00:01.40

Peak level 99.9 % Extraction speed 7.0 X Track quality 99.8 % Test CRC 58021794 Copy CRC 58021794 Accurately ripped (confidence 5) [374CDCFA] (AR v2) Copy OK

Track 21

Filename D:\Work\RIPs\21 - Kyodai-ka Fanfare.wav

Pre-gap length 0:00:02.00

Peak level 100.0 % Extraction speed 6.5 X Track quality 100.0 % Test CRC 5E4341DE Copy CRC 5E4341DE Accurately ripped (confidence 5) [8703226C] (AR v2) Copy OK

Track 22

Filename D:\Work\RIPs\22 - Suu vs ki.wav

Pre-gap length 0:00:02.00

Peak level 100.0 % Extraction speed 11.7 X Track quality 100.0 % Test CRC 2D6FA8D7 Copy CRC 2D6FA8D7 Accurately ripped (confidence 5) [2AF01470] (AR v2) Copy OK

Track 23

Filename D:\Work\RIPs\23 - Toko shi Nasai!.wav

Pre-gap length 0:00:01.64

Peak level 99.9 % Extraction speed 11.4 X Track quality 100.0 % Test CRC 05C6528D Copy CRC 05C6528D Accurately ripped (confidence 5) [CF1A96C5] (AR v2) Copy OK

Track 24

Filename D:\Work\RIPs\24 - Ijo Sonomono.wav

Pre-gap length 0:00:01.61

Peak level 99.9 % Extraction speed 10.9 X Track quality 100.0 % Test CRC C325661C Copy CRC C325661C Accurately ripped (confidence 5) [DC152CFC] (AR v2) Copy OK

Track 25

Filename D:\Work\RIPs\25 - Shoshisenban!.wav

Pre-gap length 0:00:01.54

Peak level 99.8 % Extraction speed 11.6 X Track quality 100.0 % Test CRC 5A56ADBE Copy CRC 5A56ADBE Accurately ripped (confidence 5) [AF7522D4] (AR v2) Copy OK

Track 26

Filename D:\Work\RIPs\26 - Donimo Hikkakaru.wav

Pre-gap length 0:00:01.62

Peak level 92.1 % Extraction speed 12.0 X Track quality 100.0 % Test CRC 9BA6B6FB Copy CRC 9BA6B6FB Accurately ripped (confidence 5) [96C77A55] (AR v2) Copy OK

Track 27

Filename D:\Work\RIPs\27 - Hito me ni Tsukanai Tokoro.wav

Pre-gap length 0:00:02.20

Peak level 61.2 % Extraction speed 12.6 X Track quality 100.0 % Test CRC 14657B3F Copy CRC 14657B3F Accurately ripped (confidence 5) [FB3AB12E] (AR v2) Copy OK

Track 28

Filename D:\Work\RIPs\28 - Barenakya Heiki yo.wav

Pre-gap length 0:00:01.74

Peak level 84.7 % Extraction speed 12.0 X Track quality 100.0 % Test CRC BC47A618 Copy CRC BC47A618 Accurately ripped (confidence 5) [8DA7ED9E] (AR v2) Copy OK

Track 29

Filename D:\Work\RIPs\29 - Kefuhakujiyau.wav

Pre-gap length 0:00:02.07

Peak level 98.5 % Extraction speed 12.2 X Track quality 100.0 % Test CRC 748CC81A Copy CRC 748CC81A Accurately ripped (confidence 5) [57A65DBD] (AR v2) Copy OK

Track 30

Filename D:\Work\RIPs\30 - Ikite Kaeretara…….wav

Pre-gap length 0:00:01.74

Peak level 98.6 % Extraction speed 13.2 X Track quality 100.0 % Test CRC D360F3F3 Copy CRC D360F3F3 Accurately ripped (confidence 5) [86731461] (AR v2) Copy OK

Track 31

Filename D:\Work\RIPs\31 - Naretemasukara.wav

Pre-gap length 0:00:02.01

Peak level 98.6 % Extraction speed 11.1 X Track quality 100.0 % Test CRC FB145080 Copy CRC FB145080 Accurately ripped (confidence 5) [7369ACB1] (AR v2) Copy OK

Track 32

Filename D:\Work\RIPs\32 - Uwaki! Uwakina no!.wav

Pre-gap length 0:00:02.08

Peak level 90.9 % Extraction speed 11.0 X Track quality 100.0 % Test CRC 3F666887 Copy CRC 3F666887 Accurately ripped (confidence 5) [8B57DEDC] (AR v2) Copy OK

Track 33

Filename D:\Work\RIPs\33 - Shunenbukai Hebi Musume.wav

Pre-gap length 0:00:01.73

Peak level 99.8 % Extraction speed 11.1 X Track quality 100.0 % Test CRC A34E99B5 Copy CRC A34E99B5 Accurately ripped (confidence 5) [DBAF0891] (AR v2) Copy OK

Track 34

Filename D:\Work\RIPs\34 - Ai no Tohiko.wav

Pre-gap length 0:00:01.67

Peak level 99.9 % Extraction speed 11.1 X Track quality 100.0 % Test CRC ED3BDC1B Copy CRC ED3BDC1B Accurately ripped (confidence 5) [297E5BEC] (AR v2) Copy OK

Track 35

Filename D:\Work\RIPs\35 - Shinukatoomotta.wav

Pre-gap length 0:00:01.59

Peak level 99.7 % Extraction speed 11.0 X Track quality 100.0 % Test CRC F0871BC6 Copy CRC F0871BC6 Accurately ripped (confidence 5) [3BBB1052] (AR v2) Copy OK

Track 36

Filename D:\Work\RIPs\36 - Kanojotachi wa Jonetsu-tekidakara.wav

Pre-gap length 0:00:01.74

Peak level 99.8 % Extraction speed 11.1 X Track quality 100.0 % Test CRC 76BD055A Copy CRC 76BD055A Accurately ripped (confidence 5) [7DCAE088] (AR v2) Copy OK

Track 37

Filename D:\Work\RIPs\37 - Otokonokodesho. Gaman shi Nasai..wav

Pre-gap length 0:00:01.54

Peak level 87.7 % Extraction speed 11.7 X Track quality 100.0 % Test CRC 658EF3F5 Copy CRC 658EF3F5 Accurately ripped (confidence 5) [7928EF8E] (AR v2) Copy OK

Track 38

Filename D:\Work\RIPs\38 - Tanin no Furi, Tanin no Furi.wav

Pre-gap length 0:00:01.51

Peak level 77.6 % Extraction speed 11.0 X Track quality 100.0 % Test CRC 70B8CC19 Copy CRC 70B8CC19 Accurately ripped (confidence 5) [10BB4988] (AR v2) Copy OK

Track 39

Filename D:\Work\RIPs\39 - On'nanoko no Yawaraka-sa.wav

Pre-gap length 0:00:02.05

Peak level 49.8 % Extraction speed 9.8 X Track quality 99.9 % Test CRC 3BD9E675 Copy CRC 3BD9E675 Accurately ripped (confidence 5) [82CF95A0] (AR v2) Copy OK

Track 40

Filename D:\Work\RIPs\40 - Kon'nani Nurete….wav

Pre-gap length 0:00:01.71

Peak level 67.6 % Extraction speed 11.0 X Track quality 100.0 % Test CRC 3C982F85 Copy CRC 3C982F85 Accurately ripped (confidence 5) [2B29F4AD] (AR v2) Copy OK

Track 41

Filename D:\Work\RIPs\41 - Benkyo shi teru nda.wav

Pre-gap length 0:00:02.19

Peak level 80.6 % Extraction speed 12.8 X Track quality 100.0 % Test CRC F5E43F60 Copy CRC F5E43F60 Accurately ripped (confidence 5) [AFED91D1] (AR v2) Copy OK

Track 42

Filename D:\Work\RIPs\42 - Kimi ni Shika Dekinai Koto.wav

Pre-gap length 0:00:01.10

Peak level 96.1 % Extraction speed 13.5 X Track quality 100.0 % Test CRC 738F8194 Copy CRC 738F8194 Accurately ripped (confidence 5) [05A8190B] (AR v2) Copy OK

Track 43

Filename D:\Work\RIPs\43 - Monster Musume no Iru Nichijou.wav

Pre-gap length 0:00:27.33

Peak level 100.0 % Extraction speed 10.2 X Track quality 99.9 % Test CRC 74CBFA16 Copy CRC 74CBFA16 Accurately ripped (confidence 5) [AF1D7247] (AR v2) Copy OK

Track 44

Filename D:\Work\RIPs\44 - Eburidei ke Momi mi.wav

Pre-gap length 0:00:01.71

Peak level 99.6 % Extraction speed 13.7 X Track quality 99.9 % Test CRC 6F700666 Copy CRC 6F700666 Accurately ripped (confidence 5) [70818940] (AR v2) Copy OK

Track 45

Filename D:\Work\RIPs\45 - Karitakatta.wav

Pre-gap length 0:00:02.03

Peak level 100.0 % Extraction speed 14.9 X Track quality 100.0 % Test CRC 37239846 Copy CRC 37239846 Accurately ripped (confidence 5) [104E7860] (AR v2) Copy OK

All tracks accurately ripped

No errors occurred

End of status report

---- CUETools DB Plugin V2.1.6

[CTDB TOCID: 8NCDziOI4bAvjs7pH3DZwHeoGTM-] foundSubmit result: 8NCDziOI4bAvjs7pH3DZwHeoGTM- has been confirmedTrack | CTDB Status 1 | (10/10) Accurately ripped 2 | (10/10) Accurately ripped 3 | (10/10) Accurately ripped 4 | (10/10) Accurately ripped 5 | (10/10) Accurately ripped 6 | (10/10) Accurately ripped 7 | (10/10) Accurately ripped 8 | (10/10) Accurately ripped 9 | (10/10) Accurately ripped 10 | (10/10) Accurately ripped 11 | (10/10) Accurately ripped 12 | (10/10) Accurately ripped 13 | (10/10) Accurately ripped 14 | (10/10) Accurately ripped 15 | (10/10) Accurately ripped 16 | (10/10) Accurately ripped 17 | (10/10) Accurately ripped 18 | (10/10) Accurately ripped 19 | (10/10) Accurately ripped 20 | (10/10) Accurately ripped 21 | (10/10) Accurately ripped 22 | (10/10) Accurately ripped 23 | (10/10) Accurately ripped 24 | (10/10) Accurately ripped 25 | (10/10) Accurately ripped 26 | (10/10) Accurately ripped 27 | (10/10) Accurately ripped 28 | (10/10) Accurately ripped 29 | (10/10) Accurately ripped 30 | (10/10) Accurately ripped 31 | (10/10) Accurately ripped 32 | (10/10) Accurately ripped 33 | (10/10) Accurately ripped 34 | (10/10) Accurately ripped 35 | (10/10) Accurately ripped 36 | (10/10) Accurately ripped 37 | (10/10) Accurately ripped 38 | (10/10) Accurately ripped 39 | (10/10) Accurately ripped 40 | (10/10) Accurately ripped 41 | (10/10) Accurately ripped 42 | (10/10) Accurately ripped 43 | (10/10) Accurately ripped 44 | (10/10) Accurately ripped 45 | (10/10) Accurately ripped

==== Log checksum D99163A49BFEE1DEB0EAFB01A5E2847E5FC54F50CAC8209CA155639DB7E197B9 ====
</div>
</div>
</div>
</div>
</div>
<div class="post-box">
<div class="sp-wrap">
<div class="sp-head folded">CD 1</div>
<div class="sp-body">Best Album
Список треков:
01. Fastest Fall in Love [3:50]
02. Da-Da-Dash! [3:54]
03. Hey! Sumisu!! [3:41]
04. M. O. N no Tema [3:40]
05. Kisu mi Da~arin [3:41]
06. My Sweet Feelings [4:20]
07. Papism [4:19]
08. Pa-pi Dansu [3:36]
09. Nobility [4:04]
10. Monsuta Rokku! [4:09]
11. Ama ga sa no uta [5:07]
12. Hana Nota [4:16]
Проверка:
<div class="post-box">
<div class="sp-wrap">
<div class="sp-head folded">Открыть</div>
<div class="sp-body">
<div class="sp-wrap">
<div class="sp-head folded">ЕАС Лог</div>
<div class="sp-body">

Exact Audio Copy V1.3 from 2. September 2016

EAC extraction logfile from 12. September 2017, 19:12

- / Monster Musume no Iru Nichijou - Best Album

Used drive : PLEXTOR CD-R PREMIUM2 Adapter: 1 ID: 1

Read mode : SecureUtilize accurate stream : YesDefeat audio cache : YesMake use of C2 pointers : No

Read offset correction : 30Overread into Lead-In and Lead-Out : YesFill up missing offset samples with silence : YesDelete leading and trailing silent blocks : NoNull samples used in CRC calculations : YesUsed interface : Native Win32 interface for Win NT & 2000Gap handling : Appended to previous track

Used output format : User Defined EncoderSelected bitrate : 1024 kBit/sQuality : HighAdd ID3 tag : NoCommand line compressor : C:\Program Files (x86)\Exact Audio Copy RIP\Flac\flac.exeAdditional command line options : -V -8 -T "Genre=%genre%" -T "Artist=%artist%" -T "Title=%title%" -T "Album=%albumtitle%" -T "Date=%year%" -T "Tracknumber=%tracknr%" -T "Comment=%comment%" %source%

TOC of the extracted CD

Track | Start | Length | Start sector | End sector --------------------------------------------------------- 1 | 0:00.00 | 3:50.00 | 0 | 17249 2 | 3:50.00 | 3:54.00 | 17250 | 34799 3 | 7:44.00 | 3:41.00 | 34800 | 51374 4 | 11:25.00 | 3:40.00 | 51375 | 67874 5 | 15:05.00 | 3:41.00 | 67875 | 84449 6 | 18:46.00 | 4:20.00 | 84450 | 103949 7 | 23:06.00 | 4:19.00 | 103950 | 123374 8 | 27:25.00 | 3:36.00 | 123375 | 139574 9 | 31:01.00 | 4:04.00 | 139575 | 157874 10 | 35:05.00 | 4:09.00 | 157875 | 176549 11 | 39:14.00 | 5:07.00 | 176550 | 199574 12 | 44:21.00 | 4:16.17 | 199575 | 218791

Track 1

Filename D:\Work\RIPs\01 - Fastest Fall in Love.wav

Pre-gap length 0:00:02.00

Peak level 98.8 % Extraction speed 8.0 X Track quality 100.0 % Test CRC 4BCACF5F Copy CRC 4BCACF5F Accurately ripped (confidence 2) [E47F49B3] (AR v2) Copy OK

Track 2

Filename D:\Work\RIPs\02 - Da-Da-Dash!.wav

Pre-gap length 0:00:02.57

Peak level 98.8 % Extraction speed 8.9 X Track quality 100.0 % Test CRC A7F93CA1 Copy CRC A7F93CA1 Accurately ripped (confidence 2) [BA45AF3D] (AR v2) Copy OK

Track 3

Filename D:\Work\RIPs\03 - Hey! Sumisu!!.wav

Pre-gap length 0:00:02.57

Peak level 98.8 % Extraction speed 9.7 X Track quality 100.0 % Test CRC 914B78A9 Copy CRC 914B78A9 Accurately ripped (confidence 2) [EB194B93] (AR v2) Copy OK

Track 4

Filename D:\Work\RIPs\04 - M. O. N no Tema.wav

Pre-gap length 0:00:02.57

Peak level 98.8 % Extraction speed 10.3 X Track quality 100.0 % Test CRC 5F81164E Copy CRC 5F81164E Accurately ripped (confidence 2) [867277B1] (AR v2) Copy OK

Track 5

Filename D:\Work\RIPs\05 - Kisu mi Da~arin.wav

Pre-gap length 0:00:02.57

Peak level 98.8 % Extraction speed 11.0 X Track quality 100.0 % Test CRC 351290A7 Copy CRC 351290A7 Accurately ripped (confidence 2) [B12075AF] (AR v2) Copy OK

Track 6

Filename D:\Work\RIPs\06 - My Sweet Feelings.wav

Pre-gap length 0:00:02.57

Peak level 98.8 % Extraction speed 11.7 X Track quality 100.0 % Test CRC 900731F5 Copy CRC 900731F5 Accurately ripped (confidence 2) [A1E51127] (AR v2) Copy OK

Track 7

Filename D:\Work\RIPs\07 - Papism.wav

Pre-gap length 0:00:02.57

Peak level 98.8 % Extraction speed 12.3 X Track quality 100.0 % Test CRC 5910F571 Copy CRC 5910F571 Accurately ripped (confidence 2) [D1EFB293] (AR v2) Copy OK

Track 8

Filename D:\Work\RIPs\08 - Paーpi Dansu.wav

Pre-gap length 0:00:02.57

Peak level 98.8 % Extraction speed 12.8 X Track quality 100.0 % Test CRC 19533322 Copy CRC 19533322 Accurately ripped (confidence 2) [0C260623] (AR v2) Copy OK

Track 9

Filename D:\Work\RIPs\09 - Nobility.wav

Pre-gap length 0:00:02.57

Peak level 98.8 % Extraction speed 10.9 X Track quality 99.9 % Test CRC 21E1E1B7 Copy CRC 21E1E1B7 Accurately ripped (confidence 2) [517FD7AD] (AR v2) Copy OK

Track 10

Filename D:\Work\RIPs\10 - Monsuta Rokku!.wav

Pre-gap length 0:00:02.58

Peak level 98.8 % Extraction speed 11.2 X Track quality 99.9 % Test CRC 60CDDAAF Copy CRC 60CDDAAF Accurately ripped (confidence 2) [A0E344CD] (AR v2) Copy OK

Track 11

Filename D:\Work\RIPs\11 - Ama ga sa no uta.wav

Pre-gap length 0:00:02.58

Peak level 98.8 % Extraction speed 14.6 X Track quality 100.0 % Test CRC 6D166D22 Copy CRC 6D166D22 Accurately ripped (confidence 2) [6C87EC46] (AR v2) Copy OK

Track 12

Filename D:\Work\RIPs\12 - Hana Nota.wav

Pre-gap length 0:00:02.58

Peak level 98.8 % Extraction speed 14.9 X Track quality 100.0 % Test CRC CE8F4E50 Copy CRC CE8F4E50 Accurately ripped (confidence 2) [2F978D7A] (AR v2) Copy OK

All tracks accurately ripped

No errors occurred

End of status report

---- CUETools DB Plugin V2.1.6

[CTDB TOCID: Npdg4omFSVSrolwfxL_.Lf9tosg-] foundSubmit result: Npdg4omFSVSrolwfxL_.Lf9tosg- has been confirmedTrack | CTDB Status 1 | (38/38) Accurately ripped 2 | (38/38) Accurately ripped 3 | (38/38) Accurately ripped 4 | (38/38) Accurately ripped 5 | (38/38) Accurately ripped 6 | (38/38) Accurately ripped 7 | (38/38) Accurately ripped 8 | (38/38) Accurately ripped 9 | (38/38) Accurately ripped 10 | (38/38) Accurately ripped 11 | (38/38) Accurately ripped 12 | (36/38) Accurately ripped

==== Log checksum 1F9693710FFC2D9073F4BB571C4AD3CAFB4B0DC07F60A5EF7B962BF16CE43C9C ====
</div>
</div>
</div>
</div>
</div>
Best Album
Список треков:
01. Moon and Mermaid [4:01]
02. Frothy Love [3:43]
03. Rachnera Arachnera [4:48]
04. Belle Sadique [4:00]
05. Eburidei ke momi mi [5:37]
06. Karitakatta [3:40]
07. Eimu [3:38]
08. Otomekokoro Ogachikku [5:05]
09. Tachi Chi-jo Gare! [3:40]
10. Sai Kosoku Dopperu-chan [4:24]
Проверка:
<div class="post-box">
<div class="sp-wrap">
<div class="sp-head folded">Открыть</div>
<div class="sp-body">
<div class="sp-wrap">
<div class="sp-head folded">ЕАС Лог</div>
<div class="sp-body">

Exact Audio Copy V1.3 from 2. September 2016

EAC extraction logfile from 12. September 2017, 19:29

- / Monster Musume no Iru Nichijou - Best Album

Used drive : PLEXTOR CD-R PREMIUM2 Adapter: 1 ID: 1

Read mode : SecureUtilize accurate stream : YesDefeat audio cache : YesMake use of C2 pointers : No

Read offset correction : 30Overread into Lead-In and Lead-Out : YesFill up missing offset samples with silence : YesDelete leading and trailing silent blocks : NoNull samples used in CRC calculations : YesUsed interface : Native Win32 interface for Win NT & 2000Gap handling : Appended to previous track

Used output format : User Defined EncoderSelected bitrate : 1024 kBit/sQuality : HighAdd ID3 tag : NoCommand line compressor : C:\Program Files (x86)\Exact Audio Copy RIP\Flac\flac.exeAdditional command line options : -V -8 -T "Genre=%genre%" -T "Artist=%artist%" -T "Title=%title%" -T "Album=%albumtitle%" -T "Date=%year%" -T "Tracknumber=%tracknr%" -T "Comment=%comment%" %source%

TOC of the extracted CD

Track | Start | Length | Start sector | End sector --------------------------------------------------------- 1 | 0:00.00 | 4:01.00 | 0 | 18074 2 | 4:01.00 | 3:43.00 | 18075 | 34799 3 | 7:44.00 | 4:48.00 | 34800 | 56399 4 | 12:32.00 | 4:00.00 | 56400 | 74399 5 | 16:32.00 | 5:37.00 | 74400 | 99674 6 | 22:09.00 | 3:40.00 | 99675 | 116174 7 | 25:49.00 | 3:38.00 | 116175 | 132524 8 | 29:27.00 | 5:05.00 | 132525 | 155399 9 | 34:32.00 | 3:40.00 | 155400 | 171899 10 | 38:12.00 | 4:24.17 | 171900 | 191716

Track 1

Filename D:\Work\RIPs\01 - Moon and Mermaid.wav

Pre-gap length 0:00:02.00

Peak level 98.8 % Extraction speed 7.1 X Track quality 99.9 % Test CRC 64E5EF8A Copy CRC 64E5EF8A Accurately ripped (confidence 2) [0B22779F] (AR v2) Copy OK

Track 2

Filename D:\Work\RIPs\02 - Frothy Love.wav

Pre-gap length 0:00:02.57

Peak level 98.8 % Extraction speed 9.0 X Track quality 100.0 % Test CRC 6C63DCC9 Copy CRC 6C63DCC9 Accurately ripped (confidence 2) [CD0FE8EA] (AR v2) Copy OK

Track 3

Filename D:\Work\RIPs\03 - Rachnera Arachnera.wav

Pre-gap length 0:00:02.57

Peak level 98.8 % Extraction speed 10.0 X Track quality 100.0 % Test CRC FFF2C84A Copy CRC FFF2C84A Accurately ripped (confidence 2) [45D420D7] (AR v2) Copy OK

Track 4

Filename D:\Work\RIPs\04 - Belle Sadique.wav

Pre-gap length 0:00:02.57

Peak level 98.8 % Extraction speed 9.0 X Track quality 99.9 % Test CRC ECFCA8B7 Copy CRC ECFCA8B7 Accurately ripped (confidence 2) [4D0BE398] (AR v2) Copy OK

Track 5

Filename D:\Work\RIPs\05 - Eburidei ke momi mi.wav

Pre-gap length 0:00:02.57

Peak level 98.8 % Extraction speed 10.5 X Track quality 99.9 % Test CRC 0AB848BE Copy CRC 0AB848BE Accurately ripped (confidence 2) [BDC34862] (AR v2) Copy OK

Track 6

Filename D:\Work\RIPs\06 - Karitakatta.wav

Pre-gap length 0:00:02.57

Peak level 98.8 % Extraction speed 12.0 X Track quality 100.0 % Test CRC 3283548D Copy CRC 3283548D Accurately ripped (confidence 2) [26881B38] (AR v2) Copy OK

Track 7

Filename D:\Work\RIPs\07 - Eimu.wav

Pre-gap length 0:00:02.57

Peak level 98.8 % Extraction speed 12.5 X Track quality 100.0 % Test CRC 3B0E5369 Copy CRC 3B0E5369 Accurately ripped (confidence 2) [68C5B728] (AR v2) Copy OK

Track 8

Filename D:\Work\RIPs\08 - Otomekokoro Ogachikku.wav

Pre-gap length 0:00:02.57

Peak level 98.8 % Extraction speed 13.5 X Track quality 100.0 % Test CRC EA7FF8F9 Copy CRC EA7FF8F9 Accurately ripped (confidence 2) [6B5A9FD3] (AR v2) Copy OK

Track 9

Filename D:\Work\RIPs\09 - Tachi Chi-jo Gare!.wav

Pre-gap length 0:00:02.58

Peak level 98.8 % Extraction speed 13.6 X Track quality 100.0 % Test CRC 8CBC4C0D Copy CRC 8CBC4C0D Accurately ripped (confidence 2) [6BAD43E8] (AR v2) Copy OK

Track 10

Filename D:\Work\RIPs\10 - Sai Kosoku Dopperu-chan.wav

Pre-gap length 0:00:02.58

Peak level 98.8 % Extraction speed 14.7 X Track quality 100.0 % Test CRC D7905FC8 Copy CRC D7905FC8 Accurately ripped (confidence 2) [C6C28A36] (AR v2) Copy OK

All tracks accurately ripped

No errors occurred

End of status report

---- CUETools DB Plugin V2.1.6

[CTDB TOCID: DnhBz7mx2R8KvBmEpM8PC1yy9_M-] foundSubmit result: DnhBz7mx2R8KvBmEpM8PC1yy9_M- has been confirmedTrack | CTDB Status 1 | (37/37) Accurately ripped 2 | (37/37) Accurately ripped 3 | (37/37) Accurately ripped 4 | (37/37) Accurately ripped 5 | (37/37) Accurately ripped 6 | (37/37) Accurately ripped 7 | (37/37) Accurately ripped 8 | (37/37) Accurately ripped 9 | (37/37) Accurately ripped 10 | (34/37) Accurately ripped, or (2/37) differs in 106 samples @04:23:74

==== Log checksum 0FB91A5AEAD52944FE81D0D355A90ACF4F0F6ADAB79BEC2AB0BE3DA9180BBA5F ====
</div>
</div>
</div>
</div>
</div>
</div>
</div>
</div>
</div>
</div>
Синглы:
<div class="sp-wrap">
<div class="sp-head folded">2015 - OP</div>
<div class="sp-body">
OP
Список треков:
01. Fastest Fall in Love [3:50]
02. Da-Da-Dash! [3:56]
03. Fastest Fall in Love -Instrumental- [3:50]
04. Da-Da-Dash! -Instrumental- [3:52]
Проверка:
<div class="post-box">
<div class="sp-wrap">
<div class="sp-head folded">Открыть</div>
<div class="sp-body">
<div class="sp-wrap">
<div class="sp-head folded">ЕАС Лог</div>
<div class="sp-body">

Exact Audio Copy V1.3 from 2. September 2016

EAC extraction logfile from 14. September 2017, 20:05

Sora Amamiya, Ari Ozawa, Natsuki Aikawa, Mayuka Nomura, Haruka Yamazaki, Sakura Nakamura / Monster Musume no Iru Nichijou - OP

Used drive : PLEXTOR CD-R PREMIUM2 Adapter: 1 ID: 1

Read mode : SecureUtilize accurate stream : YesDefeat audio cache : YesMake use of C2 pointers : No

Read offset correction : 30Overread into Lead-In and Lead-Out : YesFill up missing offset samples with silence : YesDelete leading and trailing silent blocks : NoNull samples used in CRC calculations : YesUsed interface : Native Win32 interface for Win NT & 2000Gap handling : Appended to previous track

Used output format : User Defined EncoderSelected bitrate : 1024 kBit/sQuality : HighAdd ID3 tag : NoCommand line compressor : C:\Program Files (x86)\Exact Audio Copy RIP\Flac\flac.exeAdditional command line options : -V -8 -T "Genre=%genre%" -T "Artist=%artist%" -T "Title=%title%" -T "Album=%albumtitle%" -T "Date=%year%" -T "Tracknumber=%tracknr%" -T "Comment=%comment%" %source%

TOC of the extracted CD

Track | Start | Length | Start sector | End sector --------------------------------------------------------- 1 | 0:00.00 | 3:49.47 | 0 | 17221 2 | 3:49.47 | 3:55.48 | 17222 | 34894 3 | 7:45.20 | 3:49.48 | 34895 | 52117 4 | 11:34.68 | 3:52.32 | 52118 | 69549

Track 1

Filename D:\Work\RIPs\01 - Fastest Fall in Love.wav

Pre-gap length 0:00:02.00

Peak level 100.0 % Extraction speed 8.7 X Track quality 100.0 % Test CRC 00838E7E Copy CRC 00838E7E Accurately ripped (confidence 14) [875AE237] (AR v2) Copy OK

Track 2

Filename D:\Work\RIPs\02 - Da-Da-Dash!.wav

Peak level 99.1 % Extraction speed 9.6 X Track quality 100.0 % Test CRC AF68DA90 Copy CRC AF68DA90 Accurately ripped (confidence 14) [6D44124A] (AR v2) Copy OK

Track 3

Filename D:\Work\RIPs\03 - Fastest Fall in Love -Instrumental-.wav

Peak level 99.9 % Extraction speed 10.2 X Track quality 100.0 % Test CRC D891B58C Copy CRC D891B58C Accurately ripped (confidence 12) [94D24292] (AR v2) Copy OK

Track 4

Filename D:\Work\RIPs\04 - Da-Da-Dash! -Instrumental-.wav

Peak level 99.4 % Extraction speed 10.8 X Track quality 100.0 % Test CRC 91FAEDD5 Copy CRC 91FAEDD5 Accurately ripped (confidence 12) [6A126448] (AR v2) Copy OK

All tracks accurately ripped

No errors occurred

End of status report

---- CUETools DB Plugin V2.1.6

[CTDB TOCID: ZaCkuPUA9Z8tSYA3FPlTQ0izfbk-] foundSubmit result: ZaCkuPUA9Z8tSYA3FPlTQ0izfbk- has been confirmedTrack | CTDB Status 1 | (89/89) Accurately ripped 2 | (89/89) Accurately ripped 3 | (89/89) Accurately ripped 4 | (89/89) Accurately ripped

==== Log checksum 9548B3B6B604594EC6852517909CE9435289033E58C5239B18FBEE38BA0CDC20 ====
</div>
</div>
</div>
</div>
</div>
ED
Список треков:
01. Hey! Sumisu!! [3:41]
02. M. O. N no Tema [3:42]
03. Hey! Sumisu!! (Instrumental) [3:41]
04. M. O. N no Tema (Instrumental) [3:39]
Проверка:
<div class="post-box">
<div class="sp-wrap">
<div class="sp-head folded">Открыть</div>
<div class="sp-body">
<div class="sp-wrap">
<div class="sp-head folded">ЕАС Лог</div>
<div class="sp-body">

Exact Audio Copy V1.3 from 2. September 2016

EAC extraction logfile from 12. September 2017, 19:48

Smith with M.O.N / Monster Musume no Iru Nichijou - ED

Used drive : PLEXTOR CD-R PREMIUM2 Adapter: 1 ID: 1

Read mode : SecureUtilize accurate stream : YesDefeat audio cache : YesMake use of C2 pointers : No

Read offset correction : 30Overread into Lead-In and Lead-Out : YesFill up missing offset samples with silence : YesDelete leading and trailing silent blocks : NoNull samples used in CRC calculations : YesUsed interface : Native Win32 interface for Win NT & 2000Gap handling : Appended to previous track

Used output format : User Defined EncoderSelected bitrate : 1024 kBit/sQuality : HighAdd ID3 tag : NoCommand line compressor : C:\Program Files (x86)\Exact Audio Copy RIP\Flac\flac.exeAdditional command line options : -V -8 -T "Genre=%genre%" -T "Artist=%artist%" -T "Title=%title%" -T "Album=%albumtitle%" -T "Date=%year%" -T "Tracknumber=%tracknr%" -T "Comment=%comment%" %source%

TOC of the extracted CD

Track | Start | Length | Start sector | End sector --------------------------------------------------------- 1 | 0:00.00 | 3:40.38 | 0 | 16537 2 | 3:40.38 | 3:41.45 | 16538 | 33157 3 | 7:22.08 | 3:40.39 | 33158 | 49696 4 | 11:02.47 | 3:38.53 | 49697 | 66099

Track 1

Filename D:\Work\RIPs\01 - Hey! Sumisu!!.wav

Pre-gap length 0:00:02.00

Peak level 99.5 % Extraction speed 8.7 X Track quality 100.0 % Test CRC 02211D02 Copy CRC 02211D02 Accurately ripped (confidence 10) [F3F14CF7] (AR v2) Copy OK

Track 2

Filename D:\Work\RIPs\02 - M. O. N no Tema.wav

Peak level 98.3 % Extraction speed 9.4 X Track quality 100.0 % Test CRC 46FA0E16 Copy CRC 46FA0E16 Accurately ripped (confidence 10) [BE8CFEEF] (AR v2) Copy OK

Track 3

Filename D:\Work\RIPs\03 - Hey! Sumisu!! (Instrumental).wav

Pre-gap length 0:00:03.25

Peak level 99.6 % Extraction speed 10.0 X Track quality 100.0 % Test CRC 14E0FFFF Copy CRC 14E0FFFF Accurately ripped (confidence 9) [2BF3C7BD] (AR v2) Copy OK

Track 4

Filename D:\Work\RIPs\04 - M. O. N no Tema (Instrumental).wav

Peak level 98.0 % Extraction speed 10.7 X Track quality 100.0 % Test CRC 1E821D30 Copy CRC 1E821D30 Accurately ripped (confidence 9) [50C60833] (AR v2) Copy OK

All tracks accurately ripped

No errors occurred

End of status report

---- CUETools DB Plugin V2.1.6

[CTDB TOCID: 73be72lpuDZRla5.Zf3ws0uoqMA-] foundSubmit result: 73be72lpuDZRla5.Zf3ws0uoqMA- has been confirmedTrack | CTDB Status 1 | (50/50) Accurately ripped 2 | (50/50) Accurately ripped 3 | (50/50) Accurately ripped 4 | (50/50) Accurately ripped

==== Log checksum 48D95A6B80ACFECD5DE2BCF9A1991821972A8F6396F89C4598E5BEE849027A62 ====
</div>
</div>
</div>
</div>
</div>
</div>
</div>


Трекер:  [ 03-Окт-2017 09:42 ]

  

Скачать .torrent

Размер .torrent файла 29 KB


Размер: 2.5 GB
Хэш (hash) релиза: f2ed6282d56abcac83150ebcbca3f23a824218e8

Еще никто не оставлял запись к записи скачать торрент Monster Musume no Iru Nichijou Повседневная жизнь с девушками-монстрами - 2015-2016 г., FLAC . Будь первым!

!Обратная связь