Скачать через торрент Американская дочь Фильм бесплатно в хорошем качестве torrent

Скачивайте на UnionPeer.org фильмы через торрент без регистрации. Новинки кино в хорошем качестве через торрент. На UnionPeer.org можно скачать через торрент фильмы 2014 и 2015 годов. Самые новые фильмы.

Скачать торрент Американская дочь бесплатно через .torrent фильм мультфильм сериал

Если у вас наблюдаются проблемы со скриншотами, переходом по ссылками, скачиванием торрентов - проблемы в блокировщике рекламы AdBlock. #хорошегоДня!


Статистика раздачи
Размер:  4.31 GB   |    Зарегистрирован:  2 месяца 8 дней   |    .torrent скачан:  13 раз   |   
Раздают:  1  
   
Загрузка...
 
Автор Сообщение

Galfimbul

avatar Galfimbul


Американская дочь

Страна: Казахстан, Россия
Жанр: драма, комедия
Год выпуска: 1995
Продолжительность: 1:33:00

Перевод: Не требуется
Субтитры: нет
Оригинальная аудиодорожка: русская

Режиссер: Карен Шахназаров

В ролях: Владимир Машков, Эллисон Уитбек, Мария Шукшина, Армен Джигарханян, Стивен Епп, Джонни Хэйес, Малкольм Браунсон, Дженнифер Дэвис, Дэйл Моррис, Тедди Лэйн мл.

Описание: Герой фильма — музыкант одного из московских ресторанов — прилетает в Сан-Франциско, чтобы… похитить свою дочь. Маленькую Анюту тайно увезла с собой его бывшая жена, выйдя замуж за респектабельного американца.
После трогательной встречи папы с дочкой начинается их путешествие автостопом по всей Америке, полное комедийных ситуаций и приключений…

Меню: есть, анимированное

Тип релиза: DVD5
Контейнер: DVD-Video

Видео: PAL 4:3 (720x576(0.611)) MPEG Video, 25,000 кадр/сек, 6337 Кбит/сек
Аудио: Russian (Dolby AC-3, 6ch) 192 Кбит/сек, 48.0 КГц
Общее
Полное имя : Американская дочь\VIDEO_TS\VTS_01_1.VOB
Формат : MPEG-PS
Размер файла : 1024 Мбайт
Продолжительность : 21 м. 29 с.
Режим общего битрейта : Постоянный
Общий поток : 6661 Кбит/сек

Видео
Идентификатор : 224 (0xE0)
Формат : MPEG Video
Версия формата : Version 2
Профиль формата : Main@Main
Параметр BVOP формата : Да
Параметр матрицы формата : По умолчанию
Параметр GOP формата : Variable
Структура изображения : Field
Продолжительность : 21 м. 29 с.
Вид битрейта : Постоянный
Битрейт : 6337 Кбит/сек
Максимальный битрейт : 6000 Кбит/сек
Ширина : 720 пикселей
Высота : 576 пикселей
Соотношение сторон : 4:3
Частота кадров : 25,000 кадров/сек
Стандарт вещания : PAL
Цветовое пространство : YUV
Субдискретизация насыщенности : 4:2:0
Битовая глубина : 8 бит
Тип развёртки : Чересстрочная
Порядок развёртки : Верхнее поле первое
Метод сжатия : С потерями
Бит/(Пиксели*Кадры) : 0.611
Временной код первого кадра : 00:55:16:16
Оригинал временного кода : Group of pictures header
GOP, открыто/закрыто : Открыто
Размер потока : 974 Мбайт (95%)
Основные цвета : BT.601 PAL
Характеристики трансфера : BT.470 System B, BT.470 System G
Коэффициенты матрицы : BT.601

Аудио
Идентификатор : 189 (0xBD)-128 (0x80)
Формат : AC-3
Формат/Информация : Audio Coding 3
Параметр Endianness формата : Big
Режим смешивания : DVD-Video
Продолжительность : 6 с. 432 мс.
Вид битрейта : Постоянный
Битрейт : 192 Кбит/сек
Каналы : 2 канала
Расположение каналов : Front: L R
Частота : 48,0 КГц
Частота кадров : 31,250 кадров/сек (1536 spf)
Битовая глубина : 16 бит
Метод сжатия : С потерями
Размер потока : 151 Кбайт (0%)
ServiceKind/String : Complete Main


Трекер:  [ 05-Окт-2017 20:06 ]

  

Скачать .torrent

Размер .torrent файла 11 KB


Размер: 4.31 GB
Хэш (hash) релиза: 1dc934a48e8fa30834b33f9fd30ad8b2c2ec6bb5
Подписка на обновления:

Еще никто не оставлял запись к записи скачать торрент Американская дочь . Будь первым!

!Обратная связь