Скачать через торрент Бесогон Эфир от 22.09.2017 Фильм бесплатно в хорошем качестве torrent

Скачивайте на UnionPeer.org фильмы через торрент без регистрации. Новинки кино в хорошем качестве через торрент. На UnionPeer.org можно скачать через торрент фильмы 2014 и 2015 годов. Самые новые фильмы.

Скачать торрент Бесогон Эфир от 22.09.2017 бесплатно через .torrent фильм мультфильм сериал

Если у вас наблюдаются проблемы со скриншотами, переходом по ссылками, скачиванием торрентов - проблемы в блокировщике рекламы AdBlock. #хорошегоДня!


Статистика раздачи
Размер:  336 MB   |    Зарегистрирован:  2 месяца 4 дня   |    .torrent скачан:  4 раза   |   
Раздают:  1  
   
Загрузка...
 
Автор Сообщение

Galfimbul

avatar Galfimbul


Бесогон
Хочет ли Серебренников быть Мейерхольдом?
Дата/Год выпуска: 22.09.2017
Страна: Россия
Жанр: Информационно-аналитическая программа
Продолжительность: 00:41:11
Перевод: Не требуется
Выпущено: Бесогон ТВ
Режиссёр: Никита МихалковОписание: Информационно-аналитическая программа Бесогон, автор Никита Сергеевич Михалков.
В новом выпуске авторской программы «Бесогон ТВ» Никита Михалков предлагает поговорить о том, как и с какой целью литературный прием гиперболизации и преувеличения можно применить в политике или жизни общества. Почему в России мы все чаще видим тенденцию сбивания людей в стаю, кому это выгодно и какие принципы, ценности, знания стоят за современными «властителями дум»? Имеет ли значение правда или достаточно лживой фасадности и навешивания ярлыков? Также Никита Михалков предлагает подумать о том, как бездумные и бездоказательные сопоставления могут навредить человеку, на которого они направлены.Сэмпл: http://multi-up.com/1169456Автор рипа/записи: Качество: WEB-DLRip
Формат видео: AVI
Видео: 720x400 (16:9), 25 fps, XviD, 1000 Kbps
Аудио: 48 kHz, MP3, 2 ch, ~128.00 kbps avg
Полное имя : E:\БесогонTV. Хочет ли Серебренников быть Мейерхольдом (22.0917) [400p by GMM].avi
Формат : AVI
Формат/Информация : Audio Video Interleave
Размер файла : 336 Мбайт
Продолжительность : 41 м. 11 с.
Общий поток : 1140 Кбит/сек
Программа кодирования : Lavf57.71.100

Видео
Идентификатор : 0
Формат : MPEG-4 Visual
Профиль формата : Advanced Simple@L5
Параметр BVOP формата : 1
Параметр QPel формата : Нет
Параметр GMC формата : Без точки перехода
Параметр матрицы формата : Default (H.263)
Идентификатор кодека : XVID
Идентификатор кодека/Подсказка : XviD
Продолжительность : 41 м. 11 с.
Битрейт : 1000 Кбит/сек
Ширина : 720 пикселей
Высота : 400 пикселей
Соотношение сторон : 16:9
Частота кадров : 23,976 (24000/1001) кадра/сек
Цветовое пространство : YUV
Субдискретизация насыщенности : 4:2:0
Битовая глубина : 8 бит
Тип развёртки : Прогрессивная
Метод сжатия : С потерями
Бит/(Пиксели*Кадры) : 0.145
Размер потока : 295 Мбайт (88%)
Библиотека кодирования : XviD 67

Аудио
Идентификатор : 1
Формат : MPEG Audio
Версия формата : Version 1
Профиль формата : Layer 3
Режим : Joint stereo
Расширение режима : MS Stereo
Идентификатор кодека : 55
Идентификатор кодека/Подсказка : MP3
Продолжительность : 41 м. 11 с.
Вид битрейта : Постоянный
Битрейт : 128 Кбит/сек
Каналы : 2 канала
Частота : 44,1 КГц
Метод сжатия : С потерями
Размер потока : 37,7 Мбайт (11%)
Выравнивание : Соединение по промежуткам
Продолжительность промежутка : 26 мс. (0,63 видеокадр)
Библиотека кодирования : LAME3.99.5


Трекер:  [ 08-Окт-2017 20:42 ]

  

Скачать .torrent

Размер .torrent файла 7 KB


Размер: 336 MB
Хэш (hash) релиза: f748fa955eb0f51cb7e7edb0782235f2083577de
Подписка на обновления:

Еще никто не оставлял запись к записи скачать торрент Бесогон Эфир от 22.09.2017 . Будь первым!

!Обратная связь