Скачать через торрент Легенда по имени Вести Фильм бесплатно в хорошем качестве torrent

Скачивайте на UnionPeer.org фильмы через торрент без регистрации. Новинки кино в хорошем качестве через торрент. На UnionPeer.org можно скачать через торрент фильмы 2014 и 2015 годов. Самые новые фильмы.

Скачать торрент Легенда по имени Вести бесплатно через .torrent фильм мультфильм сериал

Если у вас наблюдаются проблемы со скриншотами, переходом по ссылками, скачиванием торрентов - проблемы в блокировщике рекламы AdBlock. #хорошегоДня!


Статистика раздачи
Размер:  683 MB   |    Зарегистрирован:  2 месяца 3 дня   |    .torrent скачан:  2 раза   |   
Раздают:  1  
   
Загрузка...
 
Автор Сообщение

Galfimbul

avatar Galfimbul


Легенда по имени Вести

Год выпуска: 1997
Страна: Россия
Жанр: документальный
Продолжительность: 00:57:40
Перевод: Не требуется
Русские субтитры: нет
Релиз собственный

Описание: Программа Бориса Бермана и Ильдара Жандарева. Документальный фильм о создании информационной программы "Вести" из цикла "ХХ век" (Россия К, 19.09.2017)
Вступительное слово – Анатолий Лысенко.

Передача создана к 5-летию информационной программы "Вести". Об ее истории и судьбе размышляют: Светлана Сорокина, Евгений Киселев, Александр Гурнов.

Принимают участие Олег Добродеев, Александр Нехорошев, Николай Сванидзе

качество: SATRip
формат: AVI
Видео: 720x544 (1.32:1), 25 fps, XviD MPEG-4 ~1518 kbps avg, 0.16 bit/pixel
Аудио: 48 kHz, MPEG Layer 3, 2 ch, ~128.00 kbps avg
ОбщееПолное имя : G:\Видео\Легенда по имени Вести (1997).aviФормат : AVIФормат/Информация : Audio Video InterleaveРазмер файла : 683 МбайтПродолжительность : 57 м.Общий поток : 1656 Кбит/секБиблиотека кодирования : VirtualDub build 32842/releaseПравообладатель : SATRip by FakhreyПримечание : rutracker.org

ВидеоИдентификатор : 0Формат : MPEG-4 VisualПрофиль формата : Advanced Simple@L5Параметр BVOP формата : 2Параметр QPel формата : НетПараметр GMC формата : Без точки переходаПараметр матрицы формата : Default (H.263)Идентификатор кодека : XVIDИдентификатор кодека/Подсказка : XviDПродолжительность : 57 м.Битрейт : 1518 Кбит/секШирина : 720 пикселейВысота : 544 пикселяСоотношение сторон : 4:3Частота кадров : 25,000 кадров/секЦветовое пространство : YUVСубдискретизация насыщенности : 4:2:0Битовая глубина : 8 битТип развёртки : ПрогрессивнаяМетод сжатия : С потерямиБит/(Пиксели*Кадры) : 0.155Размер потока : 626 Мбайт (92%)Библиотека кодирования : XviD 64

АудиоИдентификатор : 1Формат : MPEG AudioВерсия формата : Version 1Профиль формата : Layer 3Режим : Joint stereoРасширение режима : MS StereoИдентификатор кодека : 55Идентификатор кодека/Подсказка : MP3Продолжительность : 57 м.Вид битрейта : ПостоянныйБитрейт : 128 Кбит/секКаналы : 2 каналаЧастота : 48,0 КГцМетод сжатия : С потерямиРазмер потока : 52,8 Мбайт (8%)Выравнивание : Разделение по промежуткамПродолжительность промежутка : 40 мс. (1,00 видеокадр)Время предзагрузки промежутка : 500 мс.


Трекер:  [ 08-Окт-2017 22:12 ]

  

Скачать .torrent

Размер .torrent файла 14 KB


Размер: 683 MB
Хэш (hash) релиза: a3b3f982f9beeb1de9232439b22fd48779effb34
Подписка на обновления:

Еще никто не оставлял запись к записи скачать торрент Легенда по имени Вести . Будь первым!

!Обратная связь