Скачать через торрент Ленинградка Фильм бесплатно в хорошем качестве torrent

Скачивайте на UnionPeer.org фильмы через торрент без регистрации. Новинки кино в хорошем качестве через торрент. На UnionPeer.org можно скачать через торрент фильмы 2014 и 2015 годов. Самые новые фильмы.

Скачать торрент Ленинградка бесплатно через .torrent фильм мультфильм сериал

Если у вас наблюдаются проблемы со скриншотами, переходом по ссылками, скачиванием торрентов - проблемы в блокировщике рекламы AdBlock. #хорошегоДня!


Статистика раздачи
Размер:  662 MB   |    Зарегистрирован:  2 месяца 3 дня   |    .torrent скачан:  2 раза   |   
Раздают:  1  
   
Загрузка...
 
Автор Сообщение

Galfimbul

avatar Galfimbul


Ленинградка

Дата/Год выпуска: 2011 г.
Страна: Россия
Жанр: Документальный
Продолжительность: 00:44:00
Перевод: Не требуется
Русские субтитры: нет

Режиссер: Людмила Шахт

Телестудия: Леннаучфильм
Описание: Рассказ о блокадном периоде жизни и творчества Ольги Берггольц начинается с «жестокого расцвета» 22 июня 1941 года и заканчивается днями Великой Победы. Величайшее напряжение всех сил и "мускулов мозга" стало главным испытанием в ее жизни.

Сэмпл: https://yadi.sk/i/hwjMmvs63LWLfe

качество: HDRip
формат: AVI
Видео: XviD build 67, 720x414 (1.74:1), 0.24 bit/pixel, 25 fps
Аудио: MPEG Layer 3, 128.00 kbps avg, 2 ch
Полное имя : E:\Film_WOW\leningradka.aviФормат : AVIФормат/Информация : Audio Video InterleaveРазмер файла : 662 МбайтПродолжительность : 44 м. 0 с.Общий поток : 2103 Кбит/секПрограмма кодирования : Lavf57.57.100

ВидеоИдентификатор : 0Формат : MPEG-4 VisualПрофиль формата : Simple@L3Параметр BVOP формата : НетПараметр QPel формата : НетПараметр GMC формата : Без точки переходаПараметр матрицы формата : Default (H.263)Идентификатор кодека : XVIDИдентификатор кодека/Подсказка : XviDПродолжительность : 44 м. 0 с.Битрейт : 1962 Кбит/секШирина : 720 пикселейВысота : 414 пикселейСоотношение сторон : 1,739Частота кадров : 25,000 кадров/секЦветовое пространство : YUVСубдискретизация насыщенности : 4:2:0Битовая глубина : 8 битТип развёртки : ПрогрессивнаяМетод сжатия : С потерямиБит/(Пиксели*Кадры) : 0.24Размер потока : 618 Мбайт (93%)Библиотека кодирования : XviD 67

АудиоИдентификатор : 1Формат : MPEG AudioВерсия формата : Version 1Профиль формата : Layer 3Идентификатор кодека : 55Идентификатор кодека/Подсказка : MP3Продолжительность : 44 м. 0 с.Вид битрейта : ПостоянныйБитрейт : 128 Кбит/секКаналы : 2 каналаЧастота : 48,0 КГцМетод сжатия : С потерямиРазмер потока : 40,3 Мбайт (6%)Выравнивание : Соединение по промежуткамПродолжительность промежутка : 24 мс. (0,60 видеокадр)Время предзагрузки промежутка : 24 мс.Библиотека кодирования : LAME3.99.5


Трекер:  [ 08-Окт-2017 22:42 ]

  

Скачать .torrent

Размер .torrent файла 13 KB


Размер: 662 MB
Хэш (hash) релиза: 2a39206c3e874f7188c7488c4d969f98afeaa92c
Подписка на обновления:

Торренты, похожие на Ленинградка скачать торрент

Форум Название Автор Размер S L Добавлен
Документальные фильмы и телепередачи ·· Профессия - репортер. Ленинградка (08.12.2012) (Денис Аргутинский) [2012, Документальный, SATRip] Galfimbul 172664596165 MB 0 0 1497045624

01:00

10-Июн-17

Спорт ·· Волейбол / Женщины / Чемпионат России 2016-2017 / Суперлига / 18-й тур / Уралочка-НТМК (Свердловская область) - Ленинградка (Санкт-Петербург) / Тв Старт [08.02.2017, Волейбол, WEB-DLRip, XviD, INT] Galfimbul 20158071501.88 GB 0 0 1487503279

14:21

19-Фев-17

Спорт ·· Волейбол / Женщины / Чемпионат России 2016-2017 / Суперлига / 18-й тур / Уралочка-НТМК (Свердловская область) - Ленинградка (Санкт-Петербург) / Тв Старт [08.02.2017, Волейбол, WEB-DL, TS/720p/AVC, INT] Galfimbul 33556962243.13 GB 0 0 1487497925

12:52

19-Фев-17

Спорт ·· Волейбол / Женщины / Чемпионат России 2016-2017 / Суперлига / 17-й тур / Динамо (Москва) — Ленинградка (Санкт-Петербург) / Тв Старт [14.02.2017, Волейбол, WEB-DLRip, XviD, RU] Galfimbul 14224614021.32 GB 0 0 1487148750

11:52

15-Фев-17

Спорт ·· Волейбол / Женщины / Чемпионат России 2016-2017 / Суперлига / 16-й тур / Метар (Челябинск) — Ленинградка (Санкт-Петербург) / Тв Старт [04.02.2017, Волейбол, WEB-DLRip, XviD, RU] Galfimbul 12243330061.14 GB 0 0 1486243647

00:27

5-Фев-17

Спорт ·· Волейбол / Женщины / Чемпионат России 2016-2017 / Суперлига / 16-й тур / Метар (Челябинск) — Ленинградка (Санкт-Петербург) / Тв Старт [04.02.2017, Волейбол, WEB-DL, TS/720p/AVC, INT] Galfimbul 20615444561.92 GB 0 0 1486239812

23:23

4-Фев-17

Спорт ·· Волейбол / Женщины / Чемпионат России 2016-2017 / Суперлига / 15-й тур / Ленинградка (Санкт-Петербург) — Сахалин (Южно-Сахалинск) / Тв Старт [27.01.2017, Волейбол, WEB-DLRip, XviD, RU] Galfimbul 18503149101.72 GB 0 0 1485586277

09:51

28-Янв-17

Спорт ·· Волейбол / Женщины / Чемпионат России 2016-2017 / Суперлига / 15-й тур / Ленинградка (Санкт-Петербург) — Сахалин (Южно-Сахалинск) / Тв Старт [27.01.2017, Волейбол, WEB-DL, TS/720p/AVC, RU] Galfimbul 30814845002.87 GB 0 0 1485555755

01:22

28-Янв-17

Спорт ·· Волейбол / Женщины / Чемпионат России 2016-2017 / Суперлига / 13-й тур / Протон (Саратовская область) — Ленинградка (Санкт-Петербург) / Тв Старт [18.01.2017, Волейбол, WEB-DL, TS/720p/AVC, RU] Galfimbul 37954895123.53 GB 0 0 1485100528

18:55

22-Янв-17

Спорт ·· Волейбол / Женщины / Чемпионат России 2016-2017 / Суперлига / 13-й тур / Протон (Саратовская область) — Ленинградка (Санкт-Петербург) / Тв Старт [18.01.2017, Волейбол, WEB-DLRip, XviD, RU] Galfimbul 21695670162.02 GB 0 0 1485100523

18:55

22-Янв-17

Спорт ·· Волейбол / Женщины / Чемпионат России 2016-2017 / Суперлига / 14-й тур / Ленинградка (Санкт-Петербург) — Енисей (Красноярск) / Тв Старт [21.01.2017, Волейбол, WEB-DLRip, XviD, RU] Galfimbul 20130810521.87 GB 0 0 1485100405

18:53

22-Янв-17

Спорт ·· Волейбол / Женщины / Чемпионат России 2016-2017 / Суперлига / 9-й тур / Ленинградка (Санкт-Петербург) - Уралочка-НТМК (Свердловская область) / Тв Старт [11.12.2016, Волейбол, WEB-DLRip, XviD, RU] Galfimbul 14435855561.34 GB 0 0 1481544261

15:04

12-Дек-16

Спорт ·· Волейбол / Женщины / Чемпионат России 2016-2017 / Суперлига / 9-й тур / Ленинградка (Санкт-Петербург) - Уралочка-НТМК (Свердловская область) / Тв Старт [11.12.2016, Волейбол, WEB-DL/720p, MKV/H.264, RU] Galfimbul 22938892932.14 GB 0 0 1481538086

13:21

12-Дек-16

Спорт ·· Волейбол / Женщины / Чемпионат России 2015-2016 / 20-й тур / Динамо-Казань (Казань) - Ленинградка (Санкт - Петербург) / Матч! Наш Спорт [04.04.2016 г., Волейбол, IPTV, H.264, 576i, RU] Galfimbul 23287246222.17 GB 0 0 1459868809

18:06

5-Апр-16

Спорт ·· Волейбол / Женщины / Чемпионат России 2015-2016 / 1-й тур / Заречье-Одинцово (Московская область) - Ленинградка (Санкт-Петербург) / НТВ+ HD [16.10.2015, Волейбол, HDRip, XviD, RU] Galfimbul 19096785121.78 GB 0 0 1445394062

05:21

21-Окт-15

Еще никто не оставлял запись к записи скачать торрент Ленинградка . Будь первым!

!Обратная связь