Скачать через торрент Хладнокровный Ходзуки бесплатно Аниме Все серии на русском torrent

Если у вас наблюдаются проблемы со скриншотами, переходом по ссылками, скачиванием торрентов - проблемы в блокировщике рекламы AdBlock. #хорошегоДня!


Статистика раздачи
Размер:  585 MB   |    Зарегистрирован:  2 месяца 4 дня   |    .torrent скачан:  11 раз   |   
Раздают:  1  
   
Загрузка...
 
Автор Сообщение

Galfimbul

avatar Galfimbul


Хладнокровный Ходзуки 2
Hoozuki no Reitetsu (2017)
Hozuki's Coolheadedness 2
鬼灯の冷徹 (2017)

Страна: Япония
Год выпуска: 2017 г.
Жанр: комедия, фэнтези
Тип: TV
Продолжительность: 13 эп. по ~24 мин.
Режиссер: Ёнэда Кадзухиро
Студия: Studio DEENРусские субтитры от SovetRomantica
Перевод: Korzh-sama, Arisu-chan | Редактура: RistrettoОписание: Если вы думаете, что смерть способна решить все проблемы, то вы в корне ошибаетесь. В рай вы попадёте или же в ад, везде своих проблем предостаточно. Однако, речь в нашем аниме пойдёт именно про ад, ведь так куда интереснее. Про трудности простых смертных мы говорить не будем, у нас тут вопрос глобального масштаба. В аду перенаселение! Слишком уж много грешников развелось там, на поверхности, и теперь со всей этой оравой слишком трудно справляться. И никуда не денешь их, ведь ад - это уже последнее пристанище для человека.

История поведает нам о Ходзуки, главном заместителе Великого Короля преисподней Энмы. Он является правой рукой правителя и отвечает за наказание непослушных обитателей ада, отдаёт приказы демонам рангом ниже и так далее. В общем, жизнь у него крайне занятая, и с такой работой ему пришлось закалить свой характер, да и юмор приобрёл чёрный оттенок, хотя какой ещё юмор может быть в аду? Но, несмотря на его непростой нрав, у Ходзуки есть друзья, каждый из которых с превеликим удовольствием добавляет в жизнь главного заместителя больше экшена, шума и приключений!Информационные ссылки: AniDB | MyAnimeList | World ArtКачество: HDTVRip
Тип релиза: Без хардсаба
Формат видео: MP4
Наличие линковки: Нет
Релиз/Автор рипа: Leopard-Raws
Видео: x264, 8 bit, 1280x720, ~3200 Kbps, 23.976 fps
Аудио (int): JAP, AAC, 48000 Hz, ~192 Kbps, 2 ch
Субтитры (ext): RUS, ASS
<div class="sp-wrap">
<div class="sp-head folded">MediaInfo</div>
<div class="sp-body">

Формат : MPEG-4Профиль формата : Base MediaИдентификатор кодека : isom (isom/avc1/iso6)Размер файла : 583 МбайтПродолжительность : 23 м. 59 с.Режим общего битрейта : ПеременныйОбщий поток : 3396 Кбит/секДата кодирования : UTC 2017-10-08 17:29:18Дата пометки : UTC 2017-10-08 17:29:18

ВидеоИдентификатор : 1Формат : AVCФормат/Информация : Advanced Video CodecПрофиль формата : High@L4.1Параметр CABAC формата : ДаПараметр ReFrames формата : 4 кадраИдентификатор кодека : avc1Идентификатор кодека/Информация : Advanced Video CodingПродолжительность : 23 м. 59 с.Битрейт : 3200 Кбит/секМаксимальный битрейт : 13,7 Мбит/секШирина : 1280 пикселейВысота : 720 пикселейСоотношение сторон : 16:9Режим частоты кадров : ПостоянныйЧастота кадров : 23,976 (24000/1001) кадра/секЦветовое пространство : YUVСубдискретизация насыщенности : 4:2:0Битовая глубина : 8 битТип развёртки : ПрогрессивнаяБит/(Пиксели*Кадры) : 0.145Размер потока : 549 Мбайт (94%)Заголовок : 264:fps=23.976@GPAC0.5.2-DEV-rev376-g5eeb74d-masterБиблиотека кодирования : x264 core 129 r2245+729M 1a52e03Настройки программы : cabac=1 / ref=4 / deblock=1:1:-1 / analyse=0x3:0x113 / me=umh / subme=9 / psy=1 / fade_compensate=0.00 / psy_rd=1.00:0.00 / mixed_ref=1 / me_range=24 / chroma_me=1 / trellis=2 / 8x8dct=1 / cqm=0 / deadzone=21,11 / fast_pskip=1 / chroma_qp_offset=-2 / threads=8 / lookahead_threads=1 / sliced_threads=0 / nr=0 / decimate=1 / interlaced=0 / bluray_compat=0 / constrained_intra=0 / fgo=0 / bframes=9 / b_pyramid=2 / b_adapt=2 / b_bias=0 / direct=1 / weightb=1 / open_gop=0 / weightp=2 / keyint=240 / keyint_min=24 / scenecut=40 / intra_refresh=0 / rc=crf / mbtree=0 / crf=17.5 / qcomp=0.72 / qpmin=0 / qpmax=69 / qpstep=4 / ip_ratio=1.40 / pb_ratio=1.30 / aq=1:0.85Дата кодирования : UTC 2017-10-08 17:29:18Дата пометки : UTC 2017-10-08 17:29:28Цветовой диапазон : LimitedОсновные цвета : BT.709Характеристики трансфера : BT.709Коэффициенты матрицы : BT.709

АудиоИдентификатор : 2Формат : AACФормат/Информация : Advanced Audio CodecПрофиль формата : LCИдентификатор кодека : 40Продолжительность : 23 м. 59 с.Вид битрейта : ПеременныйБитрейт : 192 Кбит/секМаксимальный битрейт : 227 Кбит/секКаналы : 2 каналаРасположение каналов : Front: L RЧастота : 48,0 КГцЧастота кадров : 46,875 кадров/сек (1024 spf)Метод сжатия : С потерямиРазмер потока : 33,0 Мбайт (6%)Язык : JapaneseДата кодирования : UTC 2017-10-08 03:52:24Дата пометки : UTC 2017-10-08 17:29:28
</div>
</div>
01. Ancient Underworld Overhaul / The Palace with the Malice
02.


Трекер:  [ 09-Окт-2017 01:01 ]

  

Скачать .torrent

Размер .torrent файла 2 KB


Размер: 585 MB
Хэш (hash) релиза: 47a40e7bda0ea26b8edf6af4b5b85d2c29b9cf7e
Подписка на обновления:

Торренты, похожие на Хладнокровный Ходзуки скачать торрент

Форум Название Автор Размер S L Добавлен
Аниме | Rips ·· Хладнокровный Ходзуки (ОВА) / Hoozuki No Reitetsu [OVA] [3 из 3] [Без хардсаба] [RUS(ext), JAP, SUB] [2014 г., комедия, фэнтези, DVDRip] Galfimbul 12288380711.14 GB 0 0 1465507721

00:28

10-Июн-16

Аниме | HD Rips ·· Хладнокровный Ходзуки (ТВ) / Hoozuki No Reitetsu [TV] [13 из 13] [Без хардсаба] [RUS(ext), JAP, SUB] [2014 г., комедия, фэнтези, BDRip] [1080p] Galfimbul 3636048516733.86 GB 0 0 1463942018

21:33

22-Май-16

Аниме | Rips ·· Хладнокровный Ходзуки ОВА / Hoozuki No Reitetsu OVA [OVA] [2 из 3] [Без хардсаба] [RUS(ext), JAP, SUB] [2014 г., комедия, фэнтези, DVDRip] Galfimbul 784829763748 MB 0 0 1457992904

01:01

15-Мар-16

Аниме | HD Rips ·· Хладнокровный Ходзуки / Hoozuki No Reitetsu [TV] [13 из 13] [Без хардсаба] [RUS(ext), JAP, SUB] [2014 г., комедия, фэнтези, BDRip] [1080p] Galfimbul 1706066371215.89 GB 0 0 1457991524

00:38

15-Мар-16

Аниме | HD Rips ·· Хладнокровный Ходзуки (ТВ) / Hoozuki no Reitetsu (Кабураки Хиро) [TV] [13 из 13] [без хардсаба] [RUS(ext), JAP+SUB] [2014 г., комедия, фэнтези, BDRip] [720p] Galfimbul 1180581650611 GB 0 0 1449609106

00:11

9-Дек-15

Аниме | HD Rips ·· Хладнокровный Ходзуки / Hoozuki no Reitetsu / Hozuki no Reitetsu / Cool-headed Hoozuki [TV] [1-13 из 13] [Без хардсаба] [JAP, SUB] [2014 г., комедия, фэнтези, BDRip] [1080p] Galfimbul 1614261232415.03 GB 0 0 1428412568

16:16

7-Апр-15

Аниме | HD Rips ·· Хладнокровный Ходзуки / Hoozuki no Reitetsu / Hozuki no Reitetsu / Cool-headed Hoozuki [TV] [1-13 из 13] [Без хардсаба] [JAP, SUB] [2014 г., комедия, фэнтези, BDRip] [720p] Galfimbul 56356300085.25 GB 0 0 1428412563

16:16

7-Апр-15

Аниме | Rips ·· Хладнокровный Ходзуки / Hoozuki no Reitetsu [TV] [8 из 13] [Без хардсаба] [RUS(int), JAP, SUB] [2014 г., комедия, фэнтези, HDTVRip] [720p] Galfimbul 29772577982.77 GB 0 0 1424286847

22:14

18-Фев-15

Аниме | HD Rips ·· Хладнокровный Ходзуки / Hozuki no Reitetsu / Hoozuki no Reitetsu [TV] [без хардсаба] [4 из 13] [JAP+SUB] [2014 г., комедия, фэнтези, HDTVRip] [720p] Polarnik 13358134931.24 GB 0 0 1393082494

18:21

22-Фев-14

Еще никто не оставлял запись к записи скачать торрент Хладнокровный Ходзуки . Будь первым!

!Обратная связь