Скачать через торрент Драконий хаос: Война красного дракона Chaos Dragon: Sekiryuu Seneki бесплатно Аниме Все серии на русском torrent

Если у вас наблюдаются проблемы со скриншотами, переходом по ссылками, скачиванием торрентов - проблемы в блокировщике рекламы AdBlock. #хорошегоДня!


Статистика раздачи
Размер:  5.17 GB   |    Зарегистрирован:  2 месяца 4 дня   |    .torrent скачан:  9 раз   |   
Раздают:  1  
   
Загрузка...
 
Автор Сообщение

Galfimbul

avatar Galfimbul


Драконий хаос: Война красного дракона
Chaos Dragon: Sekiryuu Seneki
ケイオスドラゴン 赤竜戦役
Страна: Япония
Год выпуска: 2015 г.
Жанр: экшен, фэнтези, сверхъестественное
Тип: TV
Продолжительность: 12 эп, ~24 мин. серия
Режиссер: Масато Мацунэ
Студия: Silver Link

Описание: Сюжет разворачивается в 3015 году в небольшой стране Нил Камуй, расположенной между крупными державами, Донатией и Коураном. В начале сюжета Коуран начинает захватывать территории Нил Камуя, Донатиа же поддерживает нейтралитет и защищает лишь собственные базы. В результате, Нил Камуй теряет свою независимость.
©YakuSub StudioСубтитры: ASS, внешние, язык субтитров русский; Перевод: YakuSub Studio (Редактор: Aero; Оформление: KeeperRus; Переводчик: Selfish)Качество: HDTVRip
Тип релиза: Без хардсаба
Формат видео: MP4
Наличие линковки: Нет
Релиз/Автор рипа: Leopard-Raws
Видео: AVC; 1280x720 px; 2279 Kbps; 23.976 fps; 8 bit
Аудио: AAC; 192 Kbps; 48 KHz; 2ch; Язык Японский
GeneralComplete name : M:\rutracker zwei\edit\Chaos Dragon\[Leopard-Raws] Chaos Dragon - Sekiryuu Seneki - 01 RAW (BS11 1280x720 x264 AAC).mp4Format : MPEG-4Format profile : Base MediaCodec ID : isomFile size : 425 MiBDuration : 23mn 59sOverall bit rate mode : VariableOverall bit rate : 2 474 KbpsEncoded date : UTC 2015-07-02 20:24:18Tagged date : UTC 2015-07-02 20:24:18

VideoID : 1Format : AVCFormat/Info : Advanced Video CodecFormat profile : High@L4.1Format settings, CABAC : YesFormat settings, ReFrames : 4 framesCodec ID : avc1Codec ID/Info : Advanced Video CodingDuration : 23mn 59sBit rate : 2 279 KbpsMaximum bit rate : 12.3 MbpsWidth : 1 280 pixelsHeight : 720 pixelsDisplay aspect ratio : 16:9Frame rate mode : ConstantFrame rate : 23.976 fpsColor space : YUVChroma subsampling : 4:2:0Bit depth : 8 bitsScan type : ProgressiveBits/(Pixel*Frame) : 0.103Stream size : 391 MiB (92%)Title : 264:fps=23.976@GPAC0.5.1-DEV-rev4929Writing library : x264 core 129 r2245+729M 1a52e03Encoding settings : cabac=1 / ref=4 / deblock=1:1:-1 / analyse=0x3:0x113 / me=umh / subme=9 / psy=1 / fade_compensate=0.00 / psy_rd=1.00:0.00 / mixed_ref=1 / me_range=24 / chroma_me=1 / trellis=2 / 8x8dct=1 / cqm=0 / deadzone=21,11 / fast_pskip=1 / chroma_qp_offset=-2 / threads=8 / lookahead_threads=1 / sliced_threads=0 / nr=0 / decimate=1 / interlaced=0 / bluray_compat=0 / constrained_intra=0 / fgo=0 / bframes=9 / b_pyramid=2 / b_adapt=2 / b_bias=0 / direct=1 / weightb=1 / open_gop=0 / weightp=2 / keyint=240 / keyint_min=24 / scenecut=40 / intra_refresh=0 / rc=crf / mbtree=0 / crf=17.5 / qcomp=0.72 / qpmin=0 / qpmax=69 / qpstep=4 / ip_ratio=1.40 / pb_ratio=1.30 / aq=1:0.85Encoded date : UTC 2015-07-02 20:24:18Tagged date : UTC 2015-07-02 20:24:22Color range : LimitedColor primaries : BT.709Transfer characteristics : BT.709Matrix coefficients : BT.709

AudioID : 2Format : AACFormat/Info : Advanced Audio CodecFormat profile : LCCodec ID : 40Duration : 23mn 59sBit rate mode : VariableBit rate : 192 KbpsMaximum bit rate : 225 KbpsChannel(s) : 2 channelsChannel positions : Front: L RSampling rate : 48.0 KHzCompression mode : LossyStream size : 32.9 MiB (8%)Language : JapaneseEncoded date : UTC 2015-07-02 17:04:41Tagged date : UTC 2015-07-02 20:24:22
1. Kill One to Save Many
2. Antinomy
3. Three as One
4. Amid Enemies
5. In a Fog
6. Six Paths of Transmigration
7. Ups and Downs in Life
8. Perfect Serenity
9. Winding
10. Narrow Escape from Death
11. Pandemonium
12. One Chance in a Million


Трекер:  [ 09-Окт-2017 01:30 ]

  

Скачать .torrent

Размер .torrent файла 16 KB


Размер: 5.17 GB
Хэш (hash) релиза: b31931b3d33aafec22e77da449e309d986c2ef0c
Подписка на обновления:

Торренты, похожие на Драконий хаос: Война красного дракона Chaos Dragon: Sekiryuu Seneki скачать торрент

Форум Название Автор Размер S L Добавлен
Аниме | HD Rips ·· Драконий хаос: Война красного дракона / Chaos Dragon: Sekiryuu Seneki / ケイオスドラゴン 赤竜戦役 [TV] [Без хардсаба] [JAP, SUB] [2015, приключения, фэнтези, BDRip] [720p] Galfimbul 59740046275.56 GB 0 0 1506495813

10:03

27-Сен-17

Еще никто не оставлял запись к записи скачать торрент Драконий хаос: Война красного дракона Chaos Dragon: Sekiryuu Seneki . Будь первым!

!Обратная связь