Скачать через торрент Встреча Виктора Шеренко и Евгения Федорова. Сражение за ПВО Фильм бесплатно в хорошем качестве torrent

Скачивайте на UnionPeer.org фильмы через торрент без регистрации. Новинки кино в хорошем качестве через торрент. На UnionPeer.org можно скачать через торрент фильмы 2014 и 2015 годов. Самые новые фильмы.

Скачать торрент Встреча Виктора Шеренко и Евгения Федорова. Сражение за ПВО бесплатно через .torrent фильм мультфильм сериал

Если у вас наблюдаются проблемы со скриншотами, переходом по ссылками, скачиванием торрентов - проблемы в блокировщике рекламы AdBlock. #хорошегоДня!


Статистика раздачи
Размер:  1.22 GB   |    Зарегистрирован:  2 месяца 3 дня   |    .torrent скачан:  6 раз   |   
Раздают:  1  
   
Загрузка...
 
Автор Сообщение

Galfimbul

avatar Galfimbul


Встреча Виктора Шеренко и Евгения Федорова. Сражение за ПВО

Дата/Год выпуска: 27.09.2017
Страна: Россия
Жанр: Документальный
Продолжительность: 02:28:10
Перевод: Не требуется
Русские субтитры: нет

Описание:
Из беседы, Виктор Шеренко: «Мне кажется, то, что вы говорили - нельзя к этому относиться серьезно. Вот это знаменитое ваше утверждение о расколе (в «Партия Великое Отечество» - ПВО) между финансистами, за которыми стоят патриотические лондонские промышленники. Не могли бы вы пояснить немножко...»

качество: WEBRip
формат: MKV
Видео: AVC/H.264, 1280x720 (16:9), ~1047 kbps, 25 fps
Аудио: AAC, 126 kbps, 44.1 kHz, 2 ch
GeneralUnique ID : 171423016755013517395277826656716073010 (0x80F6DF42C4EC01FCBD9B0938941E2832)Complete name : D:\Film\Встреча Виктора Шеренко и Евгения Федорова 27.09.2017.mkvFormat : MatroskaFormat version : Version 4 / Version 2File size : 1.22 GiBDuration : 2 h 28 minOverall bit rate mode : VariableOverall bit rate : 1 176 kb/sEncoded date : UTC 2017-10-02 11:53:18Writing application : mkvmerge v16.0.0 ('Protest') 64-bitWriting library : libebml v1.3.5 + libmatroska v1.4.8Cover : YesAttachments : cover.png

VideoID : 1Format : AVCFormat/Info : Advanced Video CodecFormat profile : Main@L4.1Format settings, CABAC : YesFormat settings, RefFrames : 4 framesCodec ID : V_MPEG4/ISO/AVCDuration : 2 h 28 minBit rate mode : VariableBit rate : 1 047 kb/sMaximum bit rate : 1 258 kb/sWidth : 1 280 pixelsHeight : 720 pixelsDisplay aspect ratio : 16:9Frame rate mode : ConstantFrame rate : 25.000 FPSStandard : PALColor space : YUVChroma subsampling : 4:2:0Bit depth : 8 bitsScan type : ProgressiveBits/(Pixel*Frame) : 0.045Stream size : 1.08 GiB (89%)Language : RussianDefault : YesForced : NoColor range : Limited

AudioID : 2Format : AACFormat/Info : Advanced Audio CodecFormat profile : LCCodec ID : A_AACDuration : 2 h 28 minBit rate : 126 kb/sChannel(s) : 2 channelsChannel positions : Front: L RSampling rate : 44.1 kHzFrame rate : 43.066 FPS (1024 SPF)Compression mode : LossyStream size : 133 MiB (11%)Language : RussianDefault : YesForced : No


Трекер:  [ 09-Окт-2017 05:42 ]

  

Скачать .torrent

Размер .torrent файла 25 KB


Размер: 1.22 GB
Хэш (hash) релиза: 09939413906265f7a7a42f0d0aaacb90090b0d05
Подписка на обновления:

Еще никто не оставлял запись к записи скачать торрент Встреча Виктора Шеренко и Евгения Федорова. Сражение за ПВО . Будь первым!

!Обратная связь