Скачать через торрент 30 дней по шёлковому пути с Вилли Хаапасало 01-09 серия Фильм бесплатно в хорошем качестве torrent

Скачивайте на UnionPeer.org фильмы через торрент без регистрации. Новинки кино в хорошем качестве через торрент. На UnionPeer.org можно скачать через торрент фильмы 2014 и 2015 годов. Самые новые фильмы.

Скачать торрент 30 дней по шёлковому пути с Вилли Хаапасало 01-09 серия бесплатно через .torrent фильм мультфильм сериал

Если у вас наблюдаются проблемы со скриншотами, переходом по ссылками, скачиванием торрентов - проблемы в блокировщике рекламы AdBlock. #хорошегоДня!


Статистика раздачи
Размер:  9.28 GB   |    Зарегистрирован:  2 месяца 3 дня   |    .torrent скачан:  11 раз   |   
Раздают:  1  
   
Загрузка...
 
Автор Сообщение

Galfimbul

avatar Galfimbul


30 дней по шёлковому пути с Вилли Хаапасало 01-09 серия

Год выпуска: 2010
Страна: Россия, Финляндия
Жанр: Документальный
Продолжительность: 00:40:00 серия
Перевод: Профессиональный (дублированный)
Режиссер: Vera Olsson / Вера Олссон

Описание: Дружелюбный финн Вилле Хаапасало познакомится с древнейшей караванной дорогой Азии - Великим Шёлковым путём. Любознательный ведущий проедет по странам Средней Азии, чтобы узнать, как сегодня живут люди там, где столетия назад проходил древний торговый маршрут. В Грузии он попробует настоящий тархун, научится национальным песням и танцам, продегустирует купаты и шашлык, искупается в целебных водах. Он познакомится с настоящим монахом-отшельников и узнает, как тот в одиночку строит храм. В Таджикистане он станет подмастерьем кузнеца, познакомится с искусством чаепития и исследует места, по которым проходил Александр Македонский. Чтобы познать всю мудрость Востока, Вилле проведёт целый день в узбекской семье, поспит в юрте, и, конечно, выяснит, как правильно готовить плов

качество: DVB
формат: TS

Видео: MPEG2 Video 720x576@768x576 (4:3) 25.00fps ~3 112 kb/s
Аудио: MPEG Audio 48000Hz 2 channels 192 Кбит/сек

30 дней по России с Вилле Хаапасало ...4560063
01. 30 дней по шёлковому пути с Вилли Хаапасало. Фильм 1. Грузия
02. 30 дней по шёлковому пути с Вилли Хаапасало. Фильм 2. Грузия
03. 30 дней по шёлковому пути с Вилли Хаапасало. Фильм 3. Таджикистан
04. 30 дней по шёлковому пути с Вилли Хаапасало. Фильм 4. Таджикистан
05. 30 дней по шёлковому пути с Вилли Хаапасало. Фильм 5. Узбекистан
06. 30 дней по шёлковому пути с Вилли Хаапасало. Фильм 6. Узбекистан
07. 30 дней по шёлковому пути с Вилли Хаапасало. Фильм 7. Казахстан
08. 30 дней по шёлковому пути с Вилли Хаапасало. Фильм 8. Казахстан
09. 30 дней по шёлковому пути с Вилли Хаапасало. Фильм 9. Монголия
GeneralID : 1 (0x1)Complete name : I:\111\30 дней по шёлковому пути с Вилли Хаапасало\02. 30 дней по шёлковому пути с Вилли Хаапасало. Фильм 2.tsFormat : MPEG-TSFile size : 997 MiBDuration : 40 min 5 sOverall bit rate mode : VariableOverall bit rate : 3 477 kb/s

VideoID : 1692 (0x69C)Menu ID : 1691 (0x69B)Format : MPEG VideoFormat version : Version 2Format profile : Main@MainFormat settings, BVOP : YesFormat settings, Matrix : CustomFormat settings, GOP : VariableFormat settings, picture struc : FrameCodec ID : 2Duration : 40 min 4 sBit rate mode : ConstantBit rate : 3 112 kb/sMaximum bit rate : 3 150 kb/sWidth : 720 pixelsHeight : 576 pixelsDisplay aspect ratio : 4:3Frame rate : 25.000 FPSStandard : PALColor space : YUVChroma subsampling : 4:2:0Bit depth : 8 bitsScan type : InterlacedScan order : Top Field FirstCompression mode : LossyBits/(Pixel*Frame) : 0.300Time code of first frame : 00:00:00:00Time code source : Group of pictures headerGOP, Open/Closed : OpenStream size : 892 MiB (89%)

AudioID : 1695 (0x69F)Menu ID : 1691 (0x69B)Format : MPEG AudioFormat version : Version 1Format profile : Layer 2Mode : Joint stereoMode extension : Intensity Stereo + MS StereoCodec ID : 3Duration : 40 min 4 sBit rate mode : ConstantBit rate : 192 kb/sChannel(s) : 2 channelsSampling rate : 48.0 kHzCompression mode : LossyDelay relative to video : 17 msStream size : 55.0 MiB (6%)Language : Russian


Трекер:  [ 09-Окт-2017 13:42 ]

  

Скачать .torrent

Размер .torrent файла 48 KB


Размер: 9.28 GB
Хэш (hash) релиза: f51bf8e841f0fb7cf231d9f4b54f5f2b9d838c9a
Подписка на обновления:

Еще никто не оставлял запись к записи скачать торрент 30 дней по шёлковому пути с Вилли Хаапасало 01-09 серия . Будь первым!

!Обратная связь